请选择 进入手机版 | 继续访问电脑版

中国高清论坛

 找回密码
 立即注册
搜索
查看: 339|回复: 56

[1080P] [驚險太空任務][1080p.AMZN.WEBRip.DDP2.0.x264-TrollHD][26.39GB]

  [复制链接]

超级版主

高清币
459918
金钱
20237
鲜花
58
在线时间
2822 小时
最后登录
2019-4-22
发表于 2019-3-23 07:26:04 | 显示全部楼层 |阅读模式

◎译  名 驚險太空任務
◎片  名 secret space escapes
◎年  代 2015
◎产  地 美国
◎类  别 纪录片
◎语  言 英语
◎IMDb评分 7.7/10 from 63 users
◎IMDb链接 http://www.imdb.com/title/tt5117150
◎豆瓣评分 0/10 from 0 users
◎豆瓣链接 https://movie.douban.com/subject/26773718/

◎标  签 Documentary | Discovery | 2015

◎简  介  

  What’s it like to leave earth to explore the unknown? How does it feel to be in space? What happens when you’re in space and something goes terribly wrong? Science Channel’s SECRET SPACE ESCAPES reveals terrifying accidents, fights for survival, and stories of close calls and near misses by the astronauts who survived them.



Video
ID : 1
Format : AVC
Format/Info : Advanced Video Codec
Format profile : High@L4
Format settings : CABAC / 4 Ref Frames
Format settings, CABAC : Yes
Format settings, ReFrames : 4 frames
Codec ID : V_MPEG4/ISO/AVC
Duration : 43 min 5 s
Bit rate mode : Variable
Bit rate : 12.1 Mb/s
Maximum bit rate : 15.0 Mb/s
Width : 1 920 pixels
Height : 1 080 pixels
Display aspect ratio : 16:9
Frame rate mode : Constant
Frame rate : 23.976 (24000/1001) FPS
Color space : YUV
Chroma subsampling : 4:2:0
Bit depth : 8 bits
Scan type : Progressive
Bits/(Pixel*Frame) : 0.243
Stream size : 3.63 GiB (98%)
Writing library : x264 core 148 r2623 d5b2374
Encoding settings : cabac=1 / ref=4 / deblock=1:-1:-1 / analyse=0x3:0x133 / me=umh / subme=9 / psy=1 / psy_rd=1.00:0.15 / mixed_ref=1 / me_range=24 / chroma_me=1 / trellis=2 / 8x8dct=1 / cqm=0 / deadzone=21,11 / fast_pskip=1 / chroma_qp_offset=-3 / threads=34 / lookahead_threads=5 / sliced_threads=0 / nr=150 / decimate=1 / interlaced=0 / bluray_compat=0 / constrained_intra=0 / bframes=8 / b_pyramid=2 / b_adapt=2 / b_bias=0 / direct=3 / weightb=1 / open_gop=0 / weightp=2 / keyint=120 / keyint_min=61 / scenecut=0 / intra_refresh=0 / rc_lookahead=120 / rc=crf / mbtree=1 / crf=18.0 / qcomp=0.60 / qpmin=0 / qpmax=69 / qpstep=4 / vbv_maxrate=15000 / vbv_bufsize=31250 / crf_max=0.0 / nal_hrd=vbr / filler=0 / ip_ratio=1.40 / aq=3:1.00
Default : Yes
Forced : No
Color range : Limited
Color primaries : BT.709
Transfer characteristics : BT.709
Matrix coefficients : BT.709

Audio
ID : 2
Format : E-AC-3
Format/Info : Enhanced AC-3
Commercial name : Dolby Digital Plus
Codec ID : A_EAC3
Duration : 43 min 4 s
Bit rate mode : Constant
Bit rate : 224 kb/s
Channel(s) : 2 channels
Channel layout : L R
Sampling rate : 48.0 kHz
Frame rate : 31.250 FPS (1536 SPF)
Compression mode : Lossy
Stream size : 69.0 MiB (2%)
Title : English
Language : English
Service kind : Complete Main
Default : Yes
Forced : No

Text
ID : 3
Format : UTF-8
Codec ID : S_TEXT/UTF8
Codec ID/Info : UTF-8 Plain Text
Duration : 42 min 55 s
Bit rate : 94 b/s
Count of elements : 780
Stream size : 29.6 KiB (0%)
Title : English [Full]
Language : English
Default : No
Forced : No

游客,如果您要查看本帖隐藏内容请回复


回复

使用道具 举报

影坛巨星

高清币
315
金钱
10748
鲜花
0
在线时间
1481 小时
最后登录
2019-4-22
发表于 2019-3-23 07:36:27 | 显示全部楼层

这个帖子不回对不起自己!我想我是一天也不能离开中国高清论坛
回复 支持 反对

使用道具 举报

superstar

高清币
4862
金钱
8148
鲜花
0
在线时间
665 小时
最后登录
2019-4-22
发表于 2019-3-23 08:22:36 | 显示全部楼层

这东西我收了!谢谢楼主!中国高清论坛真好!
回复 支持 反对

使用道具 举报

金鸡奖主角

高清币
275
金钱
4527
鲜花
0
在线时间
697 小时
最后登录
2019-4-20
发表于 2019-3-23 08:29:06 | 显示全部楼层
楼主发贴辛苦了,谢谢楼主分享!我觉得中国高清论坛是注册对了!
回复 支持 反对

使用道具 举报

金鸡奖主角

高清币
227
金钱
3989
鲜花
0
在线时间
355 小时
最后登录
2019-4-12
发表于 2019-3-23 08:31:09 | 显示全部楼层
楼主发贴辛苦了,谢谢楼主分享!我觉得中国高清论坛是注册对了!
回复 支持 反对

使用道具 举报

superstar

高清币
2028
金钱
11085
鲜花
0
在线时间
1435 小时
最后登录
2019-4-22
发表于 2019-3-23 08:32:34 | 显示全部楼层

楼主太厉害了!楼主,电影应该很好看我觉得中国高清论坛真是个好地方!
回复 支持 反对

使用道具 举报

永恒神话

高清币
5848
金钱
10660
鲜花
0
在线时间
617 小时
最后登录
2019-4-7
发表于 2019-3-23 08:33:52 | 显示全部楼层
楼主发贴辛苦了,谢谢楼主分享!
回复 支持 反对

使用道具 举报

天王巨星

高清币
534
金钱
2874
鲜花
0
在线时间
337 小时
最后登录
2019-4-22
发表于 2019-3-23 08:42:49 | 显示全部楼层

感谢楼主的无私分享!
回复 支持 反对

使用道具 举报

superstar

高清币
5923
金钱
11176
鲜花
0
在线时间
1316 小时
最后登录
2019-4-22
发表于 2019-3-23 08:52:30 | 显示全部楼层

感谢楼主的无私分享!要想中国高清论坛好 就靠你我他
回复 支持 反对

使用道具 举报

懒得打字嘛,点击右侧快捷回复 【右侧内容,后台自定义】
您需要登录后才可以回帖 登录 | 立即注册

本版积分规则

QQ|手机版|小黑屋|中国高清论坛 ( 黔ICP备16007815号-1 )

GMT+8, 2019-4-23 06:35 , Processed in 0.052707 second(s), 29 queries .

Powered by Discuz! X3.4

© 2001-2017 Comsenz Inc.

快速回复 返回顶部 返回列表