请选择 进入手机版 | 继续访问电脑版

中国高清论坛

 找回密码
 立即注册
搜索
查看: 1770|回复: 347

[动画片] 小学生老板娘 Okko.s.Inn.The.Movie.2018.MULTi.1080p.BluRay.DTS.x264-SHiNiGAMi

  [复制链接]

超级版主

高清币
15565
金钱
36307
鲜花
-88
在线时间
11417 小时
最后登录
2019-4-23
发表于 2019-4-14 22:52:04 | 显示全部楼层 |阅读模式


◎译  名 小学生老板娘
◎片  名 Waka okami wa shôgakusei!/若おかみは小学生
◎年  代 2018
◎国  家 日本
◎类  别 动画
◎语  言 法语
◎IMDb评分 6.9/10 from 103 users
◎IMDb链接 https://www.imdb.com/title/tt8328740/
◎片  长 1 h 34 min
◎导  演 高坂希太郎 Kitaro Kosaka
◎主  演 小林星兰 Seiran Kobayashi
       水树奈奈 Nana Mizuki
       松田飒水
       远藤璃菜 Rina Endô
       小樱悦子 Etsuko Kozakura

◎简  介


  After losing her parents in a car accident, Okko starts living in the countryside with her grandmother who runs a traditional Japanese inn. While she prepares to be the next owner of the inn, Okko can somehow see friendly ghosts.


  1. General
  2. Unique ID                      : 233410959914604918787440241733866108483 (0xAF9950D2072115BCC8FF099418903643)
  3. Complete name                  : E:\迅雷下载\[ www.Torrent9.uno ] Okko.s.Inn.The.Movie.2018.MULTi.1080p.BluRay.DTS.x264-SHiNiGAMi.mkv
  4. Format                         : Matroska
  5. Format version                 : Version 4
  6. File size                      : 7.65 GiB
  7. Duration                       : 1 h 34 min
  8. Overall bit rate               : 11.6 Mb/s
  9. Encoded date                   : UTC 2019-04-13 18:22:20
  10. Writing application            : mkvmerge v32.0.0 ('Astral Progressions') 64-bit
  11. Writing library                : libebml v1.3.7 + libmatroska v1.5.0
  12. FileExtension_Invalid          : mkv mk3d mka mks

  13. Video
  14. ID                             : 1
  15. Format                         : AVC
  16. Format/Info                    : Advanced Video Codec
  17. Format profile                 : High@L4.1
  18. Format settings                : CABAC / 4 Ref Frames
  19. Format settings, CABAC         : Yes
  20. Format settings, ReFrames      : 4 frames
  21. Codec ID                       : V_MPEG4/ISO/AVC
  22. Duration                       : 1 h 34 min
  23. Bit rate                       : 8 598 kb/s
  24. Width                          : 1 920 pixels
  25. Height                         : 1 080 pixels
  26. Display aspect ratio           : 16:9
  27. Frame rate mode                : Constant
  28. Frame rate                     : 23.976 (24000/1001) FPS
  29. Color space                    : YUV
  30. Chroma subsampling             : 4:2:0
  31. Bit depth                      : 8 bits
  32. Scan type                      : Progressive
  33. Bits/(Pixel*Frame)             : 0.173
  34. Stream size                    : 5.51 GiB (72%)
  35. Title                          : Okko's Inn Movie - 1080p - MULTi - SHiNiGAMi
  36. Writing library                : x264 core 157 r2969 d4099dd
  37. Encoding settings              : cabac=1 / ref=4 / deblock=1:0:0 / analyse=0x3:0x133 / me=umh / subme=9 / psy=1 / psy_rd=1.00:0.00 / mixed_ref=1 / me_range=16 / chroma_me=1 / trellis=2 / 8x8dct=1 / cqm=0 / deadzone=21,11 / fast_pskip=1 / chroma_qp_offset=-2 / threads=12 / lookahead_threads=1 / sliced_threads=0 / nr=0 / decimate=1 / interlaced=0 / bluray_compat=0 / constrained_intra=0 / bframes=3 / b_pyramid=2 / b_adapt=2 / b_bias=0 / direct=3 / weightb=1 / open_gop=0 / weightp=2 / keyint=240 / keyint_min=23 / scenecut=40 / intra_refresh=0 / rc_lookahead=40 / rc=2pass / mbtree=1 / bitrate=8598 / ratetol=1.0 / qcomp=0.60 / qpmin=0 / qpmax=69 / qpstep=4 / cplxblur=20.0 / qblur=0.5 / ip_ratio=1.40 / aq=1:1.00
  38. Default                        : Yes
  39. Forced                         : No

  40. Audio #1
  41. ID                             : 2
  42. Format                         : DTS
  43. Format/Info                    : Digital Theater Systems
  44. Codec ID                       : A_DTS
  45. Duration                       : 1 h 34 min
  46. Bit rate mode                  : Constant
  47. Bit rate                       : 1 509 kb/s
  48. Channel(s)                     : 6 channels
  49. Channel layout                 : C L R Ls Rs LFE
  50. Sampling rate                  : 48.0 kHz
  51. Frame rate                     : 93.750 FPS (512 SPF)
  52. Bit depth                      : 16 bits
  53. Compression mode               : Lossy
  54. Stream size                    : 1 018 MiB (13%)
  55. Title                          : FR-DTS 5.1
  56. Language                       : French
  57. Default                        : Yes
  58. Forced                         : No

  59. Audio #2
  60. ID                             : 3
  61. Format                         : DTS
  62. Format/Info                    : Digital Theater Systems
  63. Codec ID                       : A_DTS
  64. Duration                       : 1 h 34 min
  65. Bit rate mode                  : Constant
  66. Bit rate                       : 1 509 kb/s
  67. Channel(s)                     : 6 channels
  68. Channel layout                 : C L R Ls Rs LFE
  69. Sampling rate                  : 48.0 kHz
  70. Frame rate                     : 93.750 FPS (512 SPF)
  71. Bit depth                      : 16 bits
  72. Compression mode               : Lossy
  73. Stream size                    : 1 018 MiB (13%)
  74. Title                          : JAP-DTS 5.1
  75. Language                       : Japanese
  76. Default                        : No
  77. Forced                         : No

  78. Text #1
  79. ID                             : 4
  80. Format                         : UTF-8
  81. Codec ID                       : S_TEXT/UTF8
  82. Codec ID/Info                  : UTF-8 Plain Text
  83. Title                          : FR Forced
  84. Language                       : French
  85. Default                        : Yes
  86. Forced                         : No

  87. Text #2
  88. ID                             : 5
  89. Format                         : UTF-8
  90. Codec ID                       : S_TEXT/UTF8
  91. Codec ID/Info                  : UTF-8 Plain Text
  92. Title                          : FR Subs
  93. Language                       : French
  94. Default                        : No
  95. Forced                         : No

  96. Menu
  97. 00:00:00.000                   : :Chapitre 01
  98. 00:14:25.281                   : :Chapitre 02
  99. 00:30:11.976                   : :Chapitre 03
  100. 00:44:40.094                   : :Chapitre 04
  101. 00:59:05.250                   : :Chapitre 05
  102. 01:16:35.716                   : :Chapitre 06
  103. 01:34:22.448                   : :Chapitre 07

复制代码

游客,如果您要查看本帖隐藏内容请回复
回复

使用道具 举报

金鸡奖主角

高清币
46
金钱
4513
鲜花
0
在线时间
640 小时
最后登录
2019-4-22
发表于 2019-4-15 12:34:26 | 显示全部楼层

其实我一直觉得楼主的品味不错!呵呵!中国高清论坛太棒了!
回复 支持 1 反对 0

使用道具 举报

人气偶像

高清币
11
金钱
985
鲜花
0
在线时间
178 小时
最后登录
2019-4-20
发表于 2019-4-15 12:34:10 | 显示全部楼层

这东西我收了!谢谢楼主!中国高清论坛真好!
回复 支持 1 反对 0

使用道具 举报

超级明星

高清币
3154
金钱
4466
鲜花
0
在线时间
1169 小时
最后登录
2019-4-23
发表于 2019-4-15 00:22:20 | 显示全部楼层

这个帖子不回对不起自己!我想我是一天也不能离开中国高清论坛
回复 支持 1 反对 0

使用道具 举报

禁止发言

高清币
7
金钱
9
鲜花
0
在线时间
1 小时
最后登录
2019-4-15
发表于 2019-4-15 00:20:27 | 显示全部楼层
提示: 作者被禁止或删除 内容自动屏蔽
回复 支持 1 反对 0

使用道具 举报

超级明星

高清币
785
金钱
8180
鲜花
0
在线时间
1870 小时
最后登录
2019-4-23
发表于 2019-4-14 22:54:38 | 显示全部楼层
楼主发贴辛苦了,谢谢楼主分享!我觉得中国高清论坛是注册对了!
回复 支持 反对

使用道具 举报

永恒神话

高清币
9125
金钱
12389
鲜花
0
在线时间
1148 小时
最后登录
2019-4-23
发表于 2019-4-14 22:57:01 | 显示全部楼层
楼主发贴辛苦了,谢谢楼主分享!我觉得中国高清论坛是注册对了!
回复 支持 反对

使用道具 举报

永恒神话

高清币
15871
金钱
23752
鲜花
0
在线时间
584 小时
最后登录
2019-4-16
发表于 2019-4-14 23:00:14 | 显示全部楼层
楼主发贴辛苦了,谢谢楼主分享!我觉得中国高清论坛是注册对了!
回复 支持 反对

使用道具 举报

superstar

高清币
2028
金钱
11085
鲜花
0
在线时间
1435 小时
最后登录
2019-4-22
发表于 2019-4-14 23:01:07 | 显示全部楼层

楼主太厉害了!楼主,电影应该很好看我觉得中国高清论坛真是个好地方!
回复 支持 反对

使用道具 举报

天王巨星

高清币
11
金钱
2702
鲜花
0
在线时间
634 小时
最后登录
2019-4-19
发表于 2019-4-14 23:10:15 | 显示全部楼层
楼主发贴辛苦了,谢谢楼主分享!我觉得中国高清论坛是注册对了!
回复 支持 反对

使用道具 举报

天王巨星

高清币
35
金钱
1935
鲜花
0
在线时间
346 小时
最后登录
2019-4-22
发表于 2019-4-14 23:18:17 | 显示全部楼层
都习惯每天来中国高清论坛转转,赚点高清币。
回复 支持 反对

使用道具 举报

金鸡奖主角

高清币
198
金钱
3803
鲜花
0
在线时间
478 小时
最后登录
2019-4-22
发表于 2019-4-14 23:19:42 | 显示全部楼层

楼主太厉害了!楼主,电影应该很好看我觉得中国高清论坛真是个好地方!
回复 支持 反对

使用道具 举报

超级明星

高清币
2777
金钱
3784
鲜花
0
在线时间
480 小时
最后登录
2019-4-22
发表于 2019-4-14 23:28:58 | 显示全部楼层

既然你诚信诚意的推荐了,那我就勉为其难的看看吧!中国高清论坛不走平凡路。
回复 支持 反对

使用道具 举报

人气偶像

高清币
14
金钱
1635
鲜花
0
在线时间
265 小时
最后登录
2019-4-16
发表于 2019-4-14 23:31:52 | 显示全部楼层
楼主发贴辛苦了,谢谢楼主分享!我觉得中国高清论坛是注册对了!
回复 支持 反对

使用道具 举报

懒得打字嘛,点击右侧快捷回复 【右侧内容,后台自定义】
您需要登录后才可以回帖 登录 | 立即注册

本版积分规则

QQ|手机版|小黑屋|中国高清论坛 ( 黔ICP备16007815号-1 )

GMT+8, 2019-4-23 06:14 , Processed in 0.058823 second(s), 30 queries .

Powered by Discuz! X3.4

© 2001-2017 Comsenz Inc.

快速回复 返回顶部 返回列表