请选择 进入手机版 | 继续访问电脑版

中国高清论坛

 找回密码
 立即注册
搜索
查看: 858|回复: 239

[剧情片] 至少这些:格雷厄姆斯坦斯的故事 T.L.O.T.2019.1080p.WEB-DL.DD5.1.H264-FGT 3.74 GiB

  [复制链接]

超级版主

高清币
15802
金钱
36829
鲜花
-88
在线时间
11548 小时
最后登录
2019-5-24
发表于 2019-5-15 15:03:22 | 显示全部楼层 |阅读模式



◎译  名 至少这些:格雷厄姆斯坦斯的故事
◎片  名 The Least of These: The Graham Staines Story
◎年  代 2019
◎产  地 美国
◎类  别 剧情
◎语  言 英语
◎IMDb评分 7.5/10 from 428 users
◎IMDB链接 https://www.imdb.com/title/tt9376172/
◎片  长 1 h 48 min
◎导  演 Aneesh Daniel
◎主  演 Sharman Joshi...Manav Banerjee
       Stephen Baldwin...Graham Staines
       Shari Rigby...Gladys Staines
       Manoj Mishra...Mahendra


◎简  介


  As the social fabric of life in rural India disintegrates in the late 1990s, journalist Manav Banerjee (Sharman Joshi) moves with his pregnant wife to the State of Orissa in hope of a better life and the promise of a lucrative career. When speculation mounts that local Australian missionary Graham Staines (Stephen Baldwin) is illegally proselytizing leprosy patients, Manav agrees to investigate undercover for the newspaper. What he finds is a series of revelations that are difficult to fathom and even harder to explain, and Manav is forced to make a choice between his own ambition and the truth. In the end, his actions spark a tragic event that is felt around the world. Based on a true story and shot on location in India, "THE LEAST OF THESE" beautifully illustrates the power of love, hope and forgiveness to overcome hate.

  1. Video
  2. ID : 1
  3. Format : AVC
  4. Format/Info : Advanced Video Codec
  5. Format profile : High@L4
  6. Format settings : CABAC / 5 Ref Frames
  7. Format settings, CABAC : Yes
  8. Format settings, ReFrames : 5 frames
  9. Codec ID : V_MPEG4/ISO/AVC
  10. Duration : 1 h 48 min
  11. Bit rate : 4 528 kb/s
  12. Width : 1 916 pixels
  13. Height : 800 pixels
  14. Display aspect ratio : 2.40:1
  15. Frame rate mode : Constant
  16. Frame rate : 23.976 FPS
  17. Color space : YUV
  18. Chroma subsampling : 4:2:0
  19. Bit depth : 8 bits
  20. Scan type : Progressive
  21. Bits/(Pixel*Frame) : 0.123
  22. Stream size : 3.44 GiB (92%)
  23. Title : The.Least.Of.These.2019.1080p.WEB-DL.DD5.1.H264-FGT
  24. Language : English
  25. Default : Yes
  26. Forced : No
  27. Color range : Limited
  28. Color primaries : BT.709
  29. Transfer characteristics : BT.709
  30. Matrix coefficients : BT.709

  31. Audio
  32. ID : 2
  33. Format : AC-3
  34. Format/Info : Audio Coding 3
  35. Commercial name : Dolby Digital
  36. Codec ID : A_AC3
  37. Duration : 1 h 48 min
  38. Bit rate mode : Constant
  39. Bit rate : 384 kb/s
  40. Channel(s) : 6 channels
  41. Channel layout : L R C LFE Ls Rs
  42. Sampling rate : 48.0 kHz
  43. Frame rate : 31.250 FPS (1536 SPF)
  44. Bit depth : 16 bits
  45. Compression mode : Lossy
  46. Stream size : 299 MiB (8%)
  47. Title : The.Least.Of.These.2019.1080p.WEB-DL.DD5.1.H264-FGT
  48. Language : English
  49. Service kind : Complete Main
  50. Default : Yes
  51. Forced : No

  52. Text
  53. ID : 3
  54. Format : UTF-8
  55. Codec ID : S_TEXT/UTF8
  56. Codec ID/Info : UTF-8 Plain Text
  57. Duration : 1 h 47 min
  58. Bit rate : 58 b/s
  59. Count of elements : 1211
  60. Stream size : 45.9 KiB (0%)
  61. Language : English
  62. Default : Yes
  63. Forced : No

  64. Menu
  65. 00:00:00.000 : en:1
  66. 00:05:52.018 : en:2
  67. 00:12:45.056 : en:3
  68. 00:19:19.532 : en:4
  69. 00:24:32.093 : en:5
  70. 00:31:18.415 : en:6
  71. 00:38:45.195 : en:7
  72. 00:42:07.772 : en:8
  73. 00:48:46.754 : en:9
  74. 00:58:31.547 : en:10
  75. 01:03:16.206 : en:11
  76. 01:11:40.292 : en:12
  77. 01:20:16.266 : en:13
  78. 01:28:49.403 : en:14
  79. 01:36:09.383 : en:15
  80. 01:42:11.118 : en:16
复制代码






游客,如果您要查看本帖隐藏内容请回复
回复

使用道具 举报

好莱坞明星

高清币
60
金钱
7067
鲜花
0
在线时间
1873 小时
最后登录
2019-5-24
发表于 2019-5-15 15:54:35 | 显示全部楼层

这个帖子不回对不起自己!我想我是一天也不能离开中国高清论坛
回复 支持 1 反对 0

使用道具 举报

永恒神话

高清币
10068
金钱
33316
鲜花
10
在线时间
2194 小时
最后登录
2019-5-24
发表于 2019-5-15 15:59:26 | 显示全部楼层

楼主,我太崇拜你了!我想我是一天也不能离开中国高清论坛
回复 支持 1 反对 0

使用道具 举报

永恒神话

高清币
12186
金钱
25224
鲜花
0
在线时间
2329 小时
最后登录
2019-5-24
发表于 2019-5-15 15:22:32 | 显示全部楼层

楼主太厉害了!楼主,电影应该很好看我觉得中国高清论坛真是个好地方!
回复 支持 反对

使用道具 举报

永恒神话

高清币
37766
金钱
74616
鲜花
0
在线时间
6326 小时
最后登录
2019-5-24
发表于 2019-5-15 15:23:36 | 显示全部楼层
楼主发贴辛苦了,谢谢楼主分享!我觉得中国高清论坛是注册对了!
回复 支持 反对

使用道具 举报

人气偶像

高清币
21
金钱
1049
鲜花
0
在线时间
117 小时
最后登录
2019-5-20
发表于 2019-5-15 15:25:44 | 显示全部楼层
楼主发贴辛苦了,谢谢楼主分享!我觉得中国高清论坛是注册对了!
回复 支持 反对

使用道具 举报

天王巨星

高清币
93
金钱
1690
鲜花
0
在线时间
136 小时
最后登录
2019-5-23
发表于 2019-5-15 15:30:01 | 显示全部楼层

感谢楼主的无私分享!要想中国高清论坛好 就靠你我他
回复 支持 反对

使用道具 举报

影坛巨星

高清币
1213
金钱
8274
鲜花
0
在线时间
1058 小时
最后登录
2019-5-24
发表于 2019-5-15 15:31:49 | 显示全部楼层

楼主太厉害了!楼主,电影应该很好看我觉得中国高清论坛真是个好地方!
回复 支持 反对

使用道具 举报

永恒神话

高清币
9353
金钱
12762
鲜花
0
在线时间
1225 小时
最后登录
2019-5-22
发表于 2019-5-15 16:11:42 | 显示全部楼层

楼主太厉害了!楼主,电影应该很好看我觉得中国高清论坛真是个好地方!
回复 支持 反对

使用道具 举报

懒得打字嘛,点击右侧快捷回复 【右侧内容,后台自定义】
您需要登录后才可以回帖 登录 | 立即注册

本版积分规则

QQ|手机版|小黑屋|中国高清论坛 ( 黔ICP备16007815号-1 )

GMT+8, 2019-5-24 09:29 , Processed in 0.087643 second(s), 30 queries .

Powered by Discuz! X3.4

© 2001-2017 Comsenz Inc.

快速回复 返回顶部 返回列表