请选择 进入手机版 | 继续访问电脑版

中国高清论坛

 找回密码
 立即注册
搜索
查看: 1266|回复: 168

[REMUX] 最后的疯狂.2017.1080p.BluRay.REMUX.AVC.DTS-HD.MA.5.1-FGT

  [复制链接]

高清发布组长

高清币
1660
金钱
3470
鲜花
0
在线时间
276 小时
最后登录
2019-9-17
发表于 2019-6-14 15:42:37 | 显示全部楼层 |阅读模式


◎译  名 最后的疯狂
◎片  名 Last Rampage: The Escape of Gary Tison
◎年  代 2017
◎产  地 美国
◎类  别 剧情
◎语  言 英语
◎上映日期 2017-09-22(美国)
◎IMDb评分 5.7/10 from 1154 users
◎IMDb链接 http://www.imdb.com/title/tt5833186
◎豆瓣评分 5.5/10 from 315 users
◎豆瓣链接 https://movie.douban.com/subject/27007252/
◎导  演 德怀特·H·里特 Dwight H. Little
◎编  剧 James W. Clarke
◎主  演 罗伯特·帕特里克 Robert Patrick
      海瑟·格拉汉姆 Heather Graham
      布鲁斯·戴维森 Bruce Davison
      Alex MacNicoll
      Molly C. Quinn
      Skyy Moore
      Casey Thomas Brown
      克里斯·勃朗宁 Chris Browning
      杰森·詹姆斯·里希特 Jason James Richter
      威廉姆·肖克利 William Shockley
      约翰·赫德 John Heard
      塔玛拉·克拉特布克 Tamara Clatterbuck
      Vincent G. Barker
      Cassandra Bautista
      Deborah Carson


◎标  签 美国 | 犯罪 | 越狱 | 真实事件 | 剧情 | 西部 | 真人真事改编 | 2017

◎简  介

  1978年夏天,由臭名昭著的真实越狱事件改编。罪犯加里·蒂松和兰迪·格里纳沃特,与三个儿子接应,从亚利桑那州立监狱越狱,逃亡新墨西哥州,一路上杀人灭口,最终落入法网。

Video
ID : 1
Format : AVC
Format/Info : Advanced Video Codec
Format profile : High@L4.1
Format settings : CABAC / 2 Ref Frames
Format settings, CABAC : Yes
Format settings, ReFrames : 2 frames
Codec ID : V_MPEG4/ISO/AVC
Duration : 1 h 32 min
Bit rate mode : Variable
Bit rate : 22.3 Mb/s
Maximum bit rate : 30.2 Mb/s
Width : 1 920 pixels
Height : 1 080 pixels
Display aspect ratio : 16:9
Frame rate mode : Constant
Frame rate : 23.976 (24000/1001) FPS
Color space : YUV
Chroma subsampling : 4:2:0
Bit depth : 8 bits
Scan type : Progressive
Bits/(Pixel*Frame) : 0.448
Stream size : 14.4 GiB (94%)
Title : Last.Rampage.The.Escape.of.Gary.Tison.2017.1080p.BluRay.REMUX.AVC.DTS-HD.MA.5.1-FGT
Language : English
Default : No
Forced : No

Audio
ID : 2
Format : DTS XLL
Format/Info : Digital Theater Systems
Commercial name : DTS-HD Master Audio
Codec ID : A_DTS
Duration : 1 h 32 min
Bit rate mode : Variable
Bit rate : 1 528 kb/s
Channel(s) : 6 channels
Channel layout : C L R Ls Rs LFE
Sampling rate : 48.0 kHz
Frame rate : 93.750 FPS (512 SPF)
Bit depth : 16 bits
Compression mode : Lossless
Stream size : 1 012 MiB (6%)
Title : Last.Rampage.The.Escape.of.Gary.Tison.2017.1080p.BluRay.REMUX.AVC.DTS-HD.MA.5.1-FGT
Language : English
Default : Yes
Forced : No

Menu
00:00:00.000 : en:Chapter 01
00:07:42.003 : en:Chapter 02
00:18:03.040 : en:Chapter 03
00:28:04.057 : en:Chapter 04
00:38:18.504 : en:Chapter 05
00:47:09.493 : en:Chapter 06
00:54:22.968 : en:Chapter 07
01:00:41.179 : en:Chapter 08
01:06:35.950 : en:Chapter 09
01:10:53.082 : en:Chapter 10
01:21:17.706 : en:Chapter 11
01:30:27.964 : en:Chapter 12




回复下载:





游客,如果您要查看本帖隐藏内容请回复,您还可以免扣高清币免回复下载:https://www.85lou.com/plugin.php?id=wyfaka_url:url


回复

使用道具 举报

金鸡奖主角

高清币
1267
金钱
3380
鲜花
0
在线时间
655 小时
最后登录
2019-9-18
发表于 2019-6-14 16:01:53 | 显示全部楼层
感谢分享精彩好电影!!!
回复 支持 反对

使用道具 举报

永恒神话

高清币
12842
金钱
37397
鲜花
10
在线时间
2485 小时
最后登录
2019-9-17
发表于 2019-6-14 16:10:54 | 显示全部楼层

既然你诚信诚意的推荐了,那我就勉为其难的看看吧!中国高清论坛不走平凡路。
回复 支持 反对

使用道具 举报

金鸡奖主角

高清币
109
金钱
4038
鲜花
0
在线时间
495 小时
最后登录
2019-9-17
发表于 2019-6-14 16:24:01 | 显示全部楼层
楼主发贴辛苦了,谢谢楼主分享!我觉得中国高清论坛是注册对了!
回复 支持 反对

使用道具 举报

永恒神话

高清币
6885
金钱
25747
鲜花
0
在线时间
5235 小时
最后登录
2019-9-18
发表于 2019-6-14 16:28:20 | 显示全部楼层

感谢楼主的无私分享!要想中国高清论坛好 就靠你我他
回复 支持 反对

使用道具 举报

好莱坞明星

高清币
1960
金钱
4085
鲜花
0
在线时间
325 小时
最后登录
2019-9-10
发表于 2019-6-14 16:32:51 | 显示全部楼层
楼主发贴辛苦了,谢谢楼主分享!我觉得中国高清论坛是注册对了!
回复 支持 反对

使用道具 举报

天王巨星

高清币
476
金钱
1937
鲜花
0
在线时间
125 小时
最后登录
2019-9-13
发表于 2019-6-14 16:38:48 | 显示全部楼层
谢谢辛苦分享
回复 支持 反对

使用道具 举报

金鸡奖主角

高清币
887
金钱
5417
鲜花
0
在线时间
802 小时
最后登录
2019-9-17
发表于 2019-6-14 16:45:52 | 显示全部楼层

这东西我收了!谢谢楼主!中国高清论坛真好!
回复 支持 反对

使用道具 举报

金鸡奖主角

高清币
46
金钱
3404
鲜花
0
在线时间
665 小时
最后登录
2019-9-17
发表于 2019-6-14 17:00:52 | 显示全部楼层
楼主发贴辛苦了,谢谢楼主分享!我觉得中国高清论坛是注册对了!
回复 支持 反对

使用道具 举报

好莱坞明星

高清币
39
金钱
6007
鲜花
0
在线时间
1142 小时
最后登录
2019-9-12
发表于 2019-6-14 17:02:24 | 显示全部楼层

这东西我收了!谢谢楼主!中国高清论坛真好!
回复 支持 反对

使用道具 举报

懒得打字嘛,点击右侧快捷回复 【右侧内容,后台自定义】
您需要登录后才可以回帖 登录 | 立即注册

本版积分规则

QQ|手机版|小黑屋|中国高清论坛 ( 黔ICP备16007815号-1 )

GMT+8, 2019-9-18 00:13 , Processed in 0.057956 second(s), 25 queries .

Powered by Discuz! X3.4

© 2001-2017 Comsenz Inc.

快速回复 返回顶部 返回列表