请选择 进入手机版 | 继续访问电脑版

中国高清论坛

 找回密码
 立即注册
亚博
搜索
查看: 60231|回复: 7839

[剧情片] 聚会的目的(未删减版) Purpose.of.Reunion.2015.720p.Uncut.HDRip.H264.AC3-Unknown 3.33 GiB

  [复制链接]

超级版主

高清币
17321
金钱
40139
鲜花
0
在线时间
12257 小时
最后登录
2019-10-14
发表于 2016-2-12 23:42:22 | 显示全部楼层 |阅读模式



◎译  名 聚会的目的
◎片  名 PurposeofReunion
◎年  代 2015
◎国  家 韩国
◎类  别 剧情
◎语  言 韩语
◎字  幕  N/A
◎IMDb评分 N/A
◎IMDB链接 N/A
◎文件格式  H264 + AC3
◎视频尺寸  1280 x 720  
◎文件大小  1CD 3.33 GiB
◎片  长  1h 47mn
◎导  演 
◎主  演 金柳妍 Yoo-yeon Kim
       




◎简  介



    东哲经营一家小酒吧,他总是对他的同学会很热情举办。有一天,他办同学会,多位男女毫无拘束玩乐,饮酒大吃,在酒店屋内也露营外宿,无论开黄腔或大搞性爱,很自然发生爽快的出轨性交场面,即使他们是已婚,而和旧同学作出超友谊性关系,搞成一片,不在乎,像禽兽一样。 东哲英俊潚洒,他的妻子出远门,他在同学会认识金研,她有娃娃脸的纯真和活力,奶大貌美,能吸引男人起色欲。虽东哲已婚,仍酷爱沾花惹草,风流成惯,她也有男友,但不知东哲已有妻室 ; 两人还是时常私密幽会偷情,亲热上床火辣性爱,尽情享受鱼水欢淫,快乐似仙侣。 他们开始一段姦情,妻子突然回国返家,因其妻经常到外国公干,两人感情也变得陌生且冷漠,妻子要求丈夫冷静思考实况,并好好照顾自己,再见了....。当他们(东哲和金研)知道彼此的秘密,他们的爱情会继续吗?理应是肯定的.... ...

  1. General
  2. Complete name                  : E:\迅雷下载\Purpose.of.Reunion.2015.720p.Uncut.HDRip.H264.AC3.avi
  3. Format                         : AVI
  4. Format/Info                    : Audio Video Interleave
  5. Format profile                 : OpenDML
  6. File size                      : 3.33 GiB
  7. Duration                       : 1h 47mn
  8. Overall bit rate               : 4 435 Kbps
  9. Writing application            : PotEncoder

  10. Video
  11. ID                             : 0
  12. Format                         : AVC
  13. Format/Info                    : Advanced Video Codec
  14. Format profile                 : Baseline@L3.1
  15. Format settings, CABAC         : No
  16. Format settings, ReFrames      : 1 frame
  17. Codec ID                       : H264
  18. Duration                       : 1h 47mn
  19. Bit rate                       : 4 233 Kbps
  20. Width                          : 1 280 pixels
  21. Height                         : 720 pixels
  22. Display aspect ratio           : 16:9
  23. Frame rate mode                : Variable
  24. Frame rate                     : 29.970 fps
  25. Color space                    : YUV
  26. Chroma subsampling             : 4:2:0
  27. Bit depth                      : 8 bits
  28. Scan type                      : Progressive
  29. Bits/(Pixel*Frame)             : 0.153
  30. Stream size                    : 3.18 GiB (95%)

  31. Audio
  32. ID                             : 1
  33. Format                         : AC-3
  34. Format/Info                    : Audio Coding 3
  35. Mode extension                 : CM (complete main)
  36. Format settings, Endianness    : Big
  37. Codec ID                       : 2000
  38. Duration                       : 1h 47mn
  39. Bit rate mode                  : Constant
  40. Bit rate                       : 192 Kbps
  41. Channel(s)                     : 2 channels
  42. Channel positions              : Front: L R
  43. Sampling rate                  : 44.1 KHz
  44. Frame rate                     : 28.711 fps (1536 spf)
  45. Bit depth                      : 16 bits
  46. Compression mode               : Lossy
  47. Stream size                    : 148 MiB (4%)
  48. Alignment                      : Aligned on interleaves
  49. Interleave, duration           : 35 ms (1.04 video frame)
  50. Interleave, preload duration   : 34 ms
复制代码

Purpose.of.Reunion.2015.720p.Uncut.HDRip.H264.AC3.avi_20160212_223138.406.jpg

Purpose.of.Reunion.2015.720p.Uncut.HDRip.H264.AC3.avi_20160212_224059.343.jpg

Purpose.of.Reunion.2015.720p.Uncut.HDRip.H264.AC3.avi_20160212_224045.578.jpg

Purpose.of.Reunion.2015.720p.Uncut.HDRip.H264.AC3.avi_20160212_223610.390.jpg

Purpose.of.Reunion.2015.720p.Uncut.HDRip.H264.AC3.avi_20160212_223529.093.jpg
游客,如果您要查看本帖隐藏内容请回复,您还可以免扣高清币免回复下载:https://www.85lou.com/plugin.php?id=wyfaka_url:url
回复

使用道具 举报

superstar

高清币
4199
金钱
5559
鲜花
0
在线时间
534 小时
最后登录
2017-5-21
发表于 2016-2-12 23:43:52 | 显示全部楼层
中国高清论坛很棒!
回复 支持 反对

使用道具 举报

人气偶像

高清币
-4
金钱
1113
鲜花
0
在线时间
133 小时
最后登录
2017-7-9
发表于 2016-2-12 23:45:17 | 显示全部楼层
感谢楼主分享精彩电影!
回复 支持 反对

使用道具 举报

金鸡奖主角

高清币
213
金钱
4151
鲜花
0
在线时间
1511 小时
最后登录
2017-9-21
发表于 2016-2-12 23:46:47 | 显示全部楼层
每天都来中国高清论坛看看有什么电影!
回复 支持 反对

使用道具 举报

人气偶像

高清币
12
金钱
1355
鲜花
0
在线时间
302 小时
最后登录
2019-10-14
发表于 2016-2-12 23:47:40 | 显示全部楼层
中国高清论坛很棒!
回复 支持 反对

使用道具 举报

金鸡奖主角

高清币
126
金钱
6556
鲜花
0
在线时间
875 小时
最后登录
2017-9-20
发表于 2016-2-12 23:48:53 | 显示全部楼层
感谢楼主分享精彩电影!
回复 支持 反对

使用道具 举报

天王巨星

高清币
257
金钱
2918
鲜花
0
在线时间
1025 小时
最后登录
2017-3-5
发表于 2016-2-12 23:50:33 | 显示全部楼层
谢谢分享@@@@@@
回复 支持 反对

使用道具 举报

影坛巨星

高清币
7115
金钱
4686
鲜花
0
在线时间
737 小时
最后登录
2017-9-20
发表于 2016-2-12 23:51:29 | 显示全部楼层
RE: 聚会的目的(未删减版) Purpose.of.Reunion.2015.720p.Uncut.HDRip.H264.AC3-Unknown 3.33 GiB
回复 支持 反对

使用道具 举报

天王巨星

高清币
-3
金钱
2181
鲜花
0
在线时间
494 小时
最后登录
2017-9-6
发表于 2016-2-12 23:51:50 | 显示全部楼层
每天都来中国高清论坛看看有什么电影!
回复 支持 反对

使用道具 举报

永恒神话

高清币
26469
金钱
35353
鲜花
0
在线时间
1413 小时
最后登录
2018-1-18
发表于 2016-2-12 23:52:37 | 显示全部楼层
其实我一直觉得楼主的品味不错!呵呵!
回复 支持 反对

使用道具 举报

懒得打字嘛,点击右侧快捷回复 【右侧内容,后台自定义】
您需要登录后才可以回帖 登录 | 立即注册

本版积分规则

QQ|手机版|小黑屋|中国高清论坛 ( 黔ICP备16007815号-1 )

GMT+8, 2019-10-15 02:03 , Processed in 0.079858 second(s), 29 queries .

Powered by Discuz! X3.4

© 2001-2017 Comsenz Inc.

快速回复 返回顶部 返回列表