请选择 进入手机版 | 继续访问电脑版

中国高清论坛

 找回密码
 立即注册
搜索
查看: 1633|回复: 82

[喜剧片] 模范家庭/琼斯一家/广告一家人.The.Joneses.2009.1080p.BluRay.x264.DTS-FGT

  [复制链接]

退役管理

高清币
2368
金钱
4711
鲜花
0
在线时间
2688 小时
最后登录
2018-10-30
发表于 2016-5-6 09:56:47 | 显示全部楼层 |阅读模式
2cd98b994d885e6c9813b797e7c9d4bc.jpg
◎译  名 模范家庭/琼斯一家/广告一家人
◎片  名 The Joneses
◎年  代 2009
◎国  家 美国
◎类  别 剧情/喜剧/家庭
◎语  言 英语
◎上映日期 2010-04-16
◎IMDb评分  6.5/10 from 32,859 users
◎IMDb链接  http://www.imdb.com/title/tt1285309/
◎豆瓣评分 6.9/10 from 4,271 users
◎豆瓣链接 https://movie.douban.com/subject/3233745/
◎片  长 96 分钟
◎导  演 Derrick Borte
◎主  演 黛米·摩尔 Demi Moore
      大卫·杜楚尼 David Duchovny
      艾梅柏·希尔德 Amber Heard
      盖瑞·科尔 Gary Cole

◎简  介

  在小镇居民的心目中,由史蒂夫(大卫·杜楚尼 David Duchovny 饰)和凯特(黛咪·摩尔 Demi Moore 饰)组成的琼斯家堪称模范家庭的典范。史蒂夫温文尔雅,做着一份收入颇丰的工作,却还有足够的时间来满足自己的兴趣;凯特漂亮端庄,无论是穿着还是行为,无疑都引领着整个小镇的时尚。每个人都希望能够成为琼斯先生和琼斯太太,每个人又都绝望的发现,无论自己如何的向他们靠拢,都永远无法赶上他们奔向幸福的脚步。
  然而,对于史蒂夫和凯特来说,生活又是另一番模样,关于这个家庭的秘密让两人永远都无法心安理得的享受生活的美好,同时,充沛的物质条件无法弥补情感上的苍白裂缝,这个外人眼中的模范家庭已然濒临崩溃。

Video
ID                                       : 1
Format                                   : AVC
Format/Info                              : Advanced Video Codec
Format profile                           : High@L4.1
Format settings, CABAC                   : Yes
Format settings, ReFrames                : 5 frames
Codec ID                                 : V_MPEG4/ISO/AVC
Duration                                 : 1h 35mn
Bit rate                                 : 10.3 Mbps
Width                                    : 1 920 pixels
Height                                   : 808 pixels
Display aspect ratio                     : 2.40:1
Frame rate mode                          : Constant
Frame rate                               : 23.976 fps
Color space                              : YUV
Chroma subsampling                       : 4:2:0
Bit depth                                : 8 bits
Scan type                                : Progressive
Bits/(Pixel*Frame)                       : 0.278
Stream size                              : 6.75 GiB (85%)
Writing library                          : x264 core 88 r1471 1144615
Encoding settings                        : cabac=1 / ref=5 / deblock=1:-3:-3 / analyse=0x3:0x113 / me=umh / subme=9 / psy=1 / psy_rd=1.05:0.10 / mixed_ref=1 / me_range=32 / chroma_me=1 / trellis=2 / 8x8dct=1 / cqm=0 / deadzone=21,11 / fast_pskip=0 / chroma_qp_offset=-2 / threads=12 / sliced_threads=0 / nr=0 / decimate=1 / mbaff=0 / constrained_intra=0 / bframes=3 / b_pyramid=2 / b_adapt=2 / b_bias=0 / direct=3 / wpredb=1 / wpredp=2 / keyint=250 / keyint_min=25 / scenecut=40 / intra_refresh=0 / rc_lookahead=60 / rc=2pass / mbtree=1 / bitrate=10335 / ratetol=2.0 / qcomp=0.70 / qpmin=10 / qpmax=51 / qpstep=4 / cplxblur=20.0 / qblur=0.5 / vbv_maxrate=50000 / vbv_bufsize=50000 / ip_ratio=1.40 / aq=1:1.00
Language                                 : English
Default                                  : Yes
Forced                                   : No

Audio
ID                                       : 2
Format                                   : DTS
Format/Info                              : Digital Theater Systems
Mode                                     : 16
Format settings, Endianness              : Big
Codec ID                                 : A_DTS
Duration                                 : 1h 35mn
Bit rate mode                            : Constant
Bit rate                                 : 1 509 Kbps
Channel(s)                               : 6 channels
Channel positions                        : Front: L C R, Side: L R, LFE
Sampling rate                            : 48.0 KHz
Frame rate                               : 93.750 fps (512 spf)
Bit depth                                : 24 bits
Compression mode                         : Lossy
Stream size                              : 1.01 GiB (13%)
Language                                 : English
Default                                  : Yes
Forced                                   : No

Text
ID                                       : 3
Format                                   : UTF-8
Codec ID                                 : S_TEXT/UTF8
Codec ID/Info                            : UTF-8 Plain Text
Language                                 : English
Default                                  : Yes
Forced                                   : No

Menu
00:00:00.000                             : :00:00:00.000
00:03:58.905                             : :00:03:58.905
00:08:11.741                             : :00:08:11.741
00:12:47.725                             : :00:12:47.725
00:17:09.570                             : :00:17:09.570
00:23:54.683                             : :00:23:54.683
00:33:36.723                             : :00:33:36.723
00:38:34.270                             : :00:38:34.270
00:43:33.820                             : :00:43:33.820
00:51:09.608                             : :00:51:09.608
00:55:41.296                             : :00:55:41.296
01:00:52.649                             : :01:00:52.649
01:06:22.061                             : :01:06:22.061
01:13:57.933                             : :01:13:57.933
01:18:45.596                             : :01:18:45.596
01:25:21.700                             : :01:25:21.700

83d11621036fe6cfa8d8379df5dd6454.jpg 7b510f686e98186fcbf24e904438161f.jpg
87b95417efd0a945af235a76d30acdfe.jpg a9fbea7852d4f363eccf70520b8f6d81.jpg
87c0973ad4689f7c2181bcbadf0d38cb.jpg 85d7b1c4f50d6964e33ef4a0d65f866b.jpg


回复下载:



游客,如果您要查看本帖隐藏内容请回复,您还可以免扣高清币免回复下载:https://www.85lou.com/plugin.php?id=wyfaka_url:url

回复

使用道具 举报

VIP贵宾

高清币
19037
金钱
33387
鲜花
0
在线时间
4517 小时
最后登录
2017-9-20
发表于 2016-5-6 10:01:33 | 显示全部楼层
感谢分享精彩好电影!!!
回复 支持 反对

使用道具 举报

天王巨星

高清币
46
金钱
2225
鲜花
0
在线时间
515 小时
最后登录
2016-11-22
发表于 2016-5-6 10:10:20 | 显示全部楼层
每天都来中国高清论坛看看有什么电影!
回复 支持 反对

使用道具 举报

superstar

高清币
3319
金钱
12427
鲜花
0
在线时间
1994 小时
最后登录
2019-8-24
发表于 2016-5-6 10:11:17 | 显示全部楼层
感谢分享。
回复 支持 反对

使用道具 举报

永恒神话

高清币
13498
金钱
21767
鲜花
0
在线时间
2463 小时
最后登录
2019-8-25
发表于 2016-5-6 10:14:35 | 显示全部楼层
每天都来中国高清论坛看看有什么电影!
回复 支持 反对

使用道具 举报

金鸡奖主角

高清币
7
金钱
3803
鲜花
0
在线时间
695 小时
最后登录
2017-3-11
发表于 2016-5-6 10:15:49 | 显示全部楼层
等待很久,十分感谢。
回复 支持 反对

使用道具 举报

永恒神话

高清币
13262
金钱
18729
鲜花
0
在线时间
1567 小时
最后登录
2019-8-25
发表于 2016-5-6 10:17:25 | 显示全部楼层
感谢楼主分享
回复 支持 反对

使用道具 举报

永恒神话

高清币
28692
金钱
36284
鲜花
0
在线时间
2749 小时
最后登录
2019-8-25
发表于 2016-5-6 10:21:03 | 显示全部楼层
支持哦,顶
回复 支持 反对

使用道具 举报

超级明星

高清币
2552
金钱
6005
鲜花
0
在线时间
1395 小时
最后登录
2019-8-12
发表于 2016-5-6 10:32:54 | 显示全部楼层
感谢楼主分享精彩电影!
回复 支持 反对

使用道具 举报

金鸡奖主角

高清币
1201
金钱
3782
鲜花
0
在线时间
183 小时
最后登录
2017-9-2
发表于 2016-5-6 10:39:36 | 显示全部楼层
每天都来中国高清论坛看看有什么电影!
回复 支持 反对

使用道具 举报

懒得打字嘛,点击右侧快捷回复 【右侧内容,后台自定义】
您需要登录后才可以回帖 登录 | 立即注册

本版积分规则

QQ|手机版|小黑屋|中国高清论坛 ( 黔ICP备16007815号-1 )

GMT+8, 2019-8-25 21:36 , Processed in 0.078820 second(s), 24 queries .

Powered by Discuz! X3.4

© 2001-2017 Comsenz Inc.

快速回复 返回顶部 返回列表