请选择 进入手机版 | 继续访问电脑版

中国高清论坛

 找回密码
 立即注册
搜索
查看: 2060|回复: 78

[喜剧片] 蜡像.Waxwork.1988.1080p.BluRay.x264.DTS-FGT

  [复制链接]

退役管理

高清币
2356
金钱
4712
鲜花
0
在线时间
2688 小时
最后登录
2018-10-30
发表于 2016-10-24 15:23:30 | 显示全部楼层 |阅读模式

◎译  名 蜡像
◎片  名 Waxwork
◎年  代 1988
◎国  家 美国/西德
◎类  别 喜剧/奇幻/恐怖
◎语  言 英语
◎上映日期 1988-6-17
◎IMDb评分  6.2/10 from 8,073 users
◎IMDb链接  http://www.imdb.com/title/tt0096426/
◎豆瓣评分 7.2/10 from 135 users
◎豆瓣链接 https://movie.douban.com/subject/3696057/  
◎片  长 95 分钟/97 分钟(unrated version)
◎导  演 Anthony Hickox
◎主  演 Zach Galligan
      Jennifer Bassey
      Joe Baker

◎简  介

  小镇上富裕的大学生马克和他的女友莎拉邀请他们的同学来到一所神秘的蜡像馆参观,里面栩栩如生的蜡像很块把他们吸引住。然而,真实的情况是,这些蜡像的确是活的,随后马克的朋友们便纷纷失踪。经过他们艰苦的调查才发现,原来馆长是邪恶的纳粹军官,利用巫术制造了一个个邪灵空间,他的朋友们不幸被吸了进去,成为了恐怖的牺牲品。为了阻止邪恶蔓延,小镇的人民决定奋起反击,将蜡像馆铲除。但在馆长魔力的作用下,狼人、吸血鬼、杀人狂以及异形等蜡像怪兽全部复活,和人类展开了大肆杀戮,而马克则不幸被吸入至一个充满丧尸的邪灵空间,他能顺利逃脱吗……

Video
ID                                       : 1
Format                                   : AVC
Format/Info                              : Advanced Video Codec
Format profile                           : High@L4.1
Format settings, CABAC                   : Yes
Format settings, ReFrames                : 4 frames
Codec ID                                 : V_MPEG4/ISO/AVC
Duration                                 : 1h 37mn
Bit rate                                 : 17.5 Mbps
Width                                    : 1 920 pixels
Height                                   : 1 040 pixels
Display aspect ratio                     : 1.85:1
Frame rate mode                          : Constant
Frame rate                               : 23.976 (24000/1001) fps
Color space                              : YUV
Chroma subsampling                       : 4:2:0
Bit depth                                : 8 bits
Scan type                                : Progressive
Bits/(Pixel*Frame)                       : 0.365
Stream size                              : 11.8 GiB (90%)
Writing library                          : x264 core 146 r2538 121396c
Encoding settings                        : cabac=1 / ref=4 / deblock=1:-3:-3 / analyse=0x3:0x113 / me=umh / subme=10 / psy=1 / psy_rd=1.00:0.15 / mixed_ref=1 / me_range=32 / chroma_me=1 / trellis=2 / 8x8dct=1 / cqm=0 / deadzone=21,11 / fast_pskip=1 / chroma_qp_offset=-3 / threads=6 / lookahead_threads=1 / sliced_threads=0 / nr=0 / decimate=1 / interlaced=0 / bluray_compat=0 / constrained_intra=0 / bframes=11 / b_pyramid=2 / b_adapt=2 / b_bias=0 / direct=1 / weightb=1 / open_gop=0 / weightp=2 / keyint=230 / keyint_min=23 / scenecut=40 / intra_refresh=0 / rc_lookahead=40 / rc=crf / mbtree=0 / crf=19.7 / qcomp=0.60 / qpmin=0 / qpmax=69 / qpstep=4 / vbv_maxrate=40000 / vbv_bufsize=50000 / crf_max=0.0 / nal_hrd=none / filler=0 / ip_ratio=1.40 / pb_ratio=1.30 / aq=1:1.00
Language                                 : English
Default                                  : Yes
Forced                                   : No

Audio
ID                                       : 2
Format                                   : DTS
Format/Info                              : Digital Theater Systems
Mode                                     : 16
Format settings, Endianness              : Big
Codec ID                                 : A_DTS
Duration                                 : 1h 37mn
Bit rate mode                            : Constant
Bit rate                                 : 1 509 Kbps
Channel(s)                               : 2 channels
Channel positions                        : Front: L R
Sampling rate                            : 48.0 KHz
Frame rate                               : 93.750 fps (512 spf)
Bit depth                                : 16 bits
Compression mode                         : Lossy
Stream size                              : 1.02 GiB (8%)
Language                                 : English
Default                                  : Yes
Forced                                   : No

Text
ID                                       : 3
Format                                   : UTF-8
Codec ID                                 : S_TEXT/UTF8
Codec ID/Info                            : UTF-8 Plain Text
Language                                 : English
Default                                  : No
Forced                                   : No






回复下载:



游客,如果您要查看本帖隐藏内容请回复

回复

使用道具 举报

影坛巨星

高清币
27
金钱
10736
鲜花
0
在线时间
2179 小时
最后登录
2019-5-23
发表于 2016-10-24 15:29:13 | 显示全部楼层
每天都来中国高清论坛看看有什么电影!
回复 支持 反对

使用道具 举报

金鸡奖主角

高清币
14
金钱
5256
鲜花
0
在线时间
690 小时
最后登录
2019-5-21
发表于 2016-10-24 15:34:22 | 显示全部楼层
每天都来中国高清论坛看看有什么电影!
回复 支持 反对

使用道具 举报

好莱坞明星

高清币
1949
金钱
4953
鲜花
0
在线时间
581 小时
最后登录
2019-5-23
发表于 2016-10-24 15:36:21 | 显示全部楼层
每天都来中国高清论坛看看有什么电影!
回复 支持 反对

使用道具 举报

金鸡奖主角

高清币
1423
金钱
1721
鲜花
0
在线时间
574 小时
最后登录
2019-5-24
发表于 2016-10-24 15:38:20 | 显示全部楼层
谢谢楼主分享
回复 支持 反对

使用道具 举报

知名艺人

高清币
37
金钱
104
鲜花
0
在线时间
6 小时
最后登录
2017-3-7
发表于 2016-10-24 16:05:26 | 显示全部楼层
感官世界感官世界
回复 支持 反对

使用道具 举报

永恒神话

高清币
18232
金钱
28802
鲜花
0
在线时间
1146 小时
最后登录
2019-5-24
发表于 2016-10-24 16:27:59 | 显示全部楼层
感谢楼主分享精彩电影!
回复 支持 反对

使用道具 举报

永恒神话

高清币
9472
金钱
16443
鲜花
0
在线时间
1758 小时
最后登录
2019-5-19
发表于 2016-10-24 16:31:25 | 显示全部楼层
感谢楼主分享
回复 支持 反对

使用道具 举报

好莱坞明星

高清币
1990
金钱
5277
鲜花
0
在线时间
1076 小时
最后登录
2019-5-18
发表于 2016-10-24 16:39:30 | 显示全部楼层
楼主分享的高清电影太好了!
回复 支持 反对

使用道具 举报

VIP贵宾

高清币
19042
金钱
33392
鲜花
0
在线时间
4517 小时
最后登录
2017-9-20
发表于 2016-10-24 16:45:04 | 显示全部楼层
感谢分享精彩好电影!!!
回复 支持 反对

使用道具 举报

懒得打字嘛,点击右侧快捷回复 【右侧内容,后台自定义】
您需要登录后才可以回帖 登录 | 立即注册

本版积分规则

QQ|手机版|小黑屋|85楼娱乐社区 ( 黔ICP备16007815号-1 )

GMT+8, 2019-5-24 09:48 , Processed in 0.062551 second(s), 28 queries .

Powered by Discuz! X3.4

© 2001-2017 Comsenz Inc.

快速回复 返回顶部 返回列表