请选择 进入手机版 | 继续访问电脑版

中国高清论坛

 找回密码
 立即注册
搜索
查看: 4177|回复: 88

[悬疑片] 阿加莎与谋杀的真谛 2018.1080p.NF.WEBRip.DDP2.0.x264-CM 1.38GB

  [复制链接]

龙行天下

高清币
33077
金钱
7152
鲜花
30
在线时间
1446 小时
最后登录
2019-4-12
发表于 2018-7-30 02:08:56 | 显示全部楼层 |阅读模式

◎译  名 阿加莎与谋杀的真谛
◎片  名 Agatha and the Truth of Murder
◎年  代 2018
◎产  地 英国
◎类  别 悬疑 / 犯罪
◎语  言 英语
◎上映日期 2018-12-23(英国)
◎IMDb评分 6.5/10 from 246 users
◎豆瓣评分 6.1/10 from 732 users
◎片  长 92分钟
◎导  演 特里·隆 Terry Loane
◎编  剧 汤姆·多尔顿 Tom Dalton
◎主  演 迪恩·安德鲁斯 Dean Andrews
      露丝·布莱德利 Ruth Bradley
      碧碧·凯芙 Bebe Cave
      阿米莉亚·戴尔 Amelia Dell
      理查德·道布尔迪 Richard Doubleday
      德雷克·哈利根 Derek Halligan
      布莱克·哈里森 Blake Harrison
      皮帕·海伍德 Pippa Haywood
      斯塔奇·希克斯 Stacha Hicks
      拉尔夫·尹爱森 Ralph Ineson
      布莱恩·麦卡迭 Brian McCardie
      迈克尔·麦克埃尔哈顿 Michael McElhatton
      蒂姆·麦克纳尼 Tim McInnerny
      利亚姆·麦克马洪 Liam McMahon
      萨曼莎·斯毕洛 Samantha Spiro


◎标  签 阿加莎·克里斯蒂 | 推理 | 悬疑 | 英国 | 英剧 | 犯罪 | 2018 | BBC

◎简  介  

  1926年,在面临个人生活破碎和写作瓶颈危机的情况下,年轻的阿加莎.克里斯蒂决定自己去解决一个真实生活中的谋杀案。

Video
ID : 1
Format : AVC
Format/Info : Advanced Video Codec
Format profile : High@L4
Format settings : CABAC / 4 Ref Frames
Format settings, CABAC : Yes
Format settings, ReFrames : 4 frames
Codec ID : V_MPEG4/ISO/AVC
Duration : 1 h 32 min
Bit rate mode : Variable
Bit rate : 2 014 kb/s
Maximum bit rate : 20.0 Mb/s
Width : 1 920 pixels
Height : 1 080 pixels
Display aspect ratio : 16:9
Frame rate mode : Constant
Frame rate : 25.000 FPS
Color space : YUV
Chroma subsampling : 4:2:0
Bit depth : 8 bits
Scan type : Progressive
Bits/(Pixel*Frame) : 0.039
Stream size : 1.30 GiB (94%)
Writing library : x264 core 148 r2715 7e75228
Encoding settings : cabac=1 / ref=4 / deblock=1:0:0 / analyse=0x3:0x111 / me=umh / subme=10 / psy=1 / psy_rd=1.00:0.00 / mixed_ref=1 / me_range=120 / chroma_me=1 / trellis=2 / 8x8dct=1 / cqm=0 / deadzone=21,11 / fast_pskip=1 / chroma_qp_offset=-2 / threads=8 / lookahead_threads=2 / sliced_threads=0 / nr=0 / decimate=1 / interlaced=0 / bluray_compat=0 / stitchable=1 / constrained_intra=0 / bframes=16 / b_pyramid=2 / b_adapt=2 / b_bias=0 / direct=3 / weightb=1 / open_gop=0 / weightp=2 / keyint=250 / keyint_min=126 / scenecut=0 / intra_refresh=0 / rc_lookahead=250 / rc=crf / mbtree=1 / crf=16.0 / qcomp=0.50 / qpmin=6 / qpmax=51 / qpstep=4 / vbv_maxrate=20000 / vbv_bufsize=25000 / crf_max=0.0 / nal_hrd=vbr / filler=0 / ip_ratio=1.40 / aq=1:0.80
Default : Yes
Forced : No

Audio
ID : 2
Format : E-AC-3
Format/Info : Enhanced AC-3
Commercial name : Dolby Digital Plus
Codec ID : A_EAC3
Duration : 1 h 32 min
Bit rate mode : Constant
Bit rate : 128 kb/s
Channel(s) : 2 channels
Channel layout : L R
Sampling rate : 48.0 kHz
Frame rate : 31.250 FPS (1536 SPF)
Compression mode : Lossy
Stream size : 84.6 MiB (6%)
Service kind : Complete Main
Default : Yes
Forced : No
Encoded date : UTC 2018-12-22 07:08:04

Text
ID : 3
Format : UTF-8
Codec ID : S_TEXT/UTF8
Codec ID/Info : UTF-8 Plain Text
Duration : 1 h 29 min
Bit rate : 74 b/s
Count of elements : 1499
Stream size : 48.5 KiB (0%)
Title : English
Language : English
Default : No
Forced : No

游客,如果您要查看本帖隐藏内容请回复


回复

使用道具 举报

金鸡奖主角

高清币
91
金钱
6640
鲜花
0
在线时间
1500 小时
最后登录
2019-4-23
发表于 2018-7-30 06:00:42 | 显示全部楼层
每天都来中国高清论坛看看有什么电影!
回复 支持 反对

使用道具 举报

金鸡奖主角

高清币
289
金钱
3795
鲜花
0
在线时间
321 小时
最后登录
2019-4-22
发表于 2018-7-30 06:53:22 | 显示全部楼层
多谢分享经典
回复 支持 反对

使用道具 举报

superstar

高清币
496
金钱
14060
鲜花
0
在线时间
1481 小时
最后登录
2019-4-23
发表于 2018-7-30 06:58:13 | 显示全部楼层
感谢楼主分享精彩电影!
回复 支持 反对

使用道具 举报

永恒神话

高清币
17028
金钱
21493
鲜花
0
在线时间
1193 小时
最后登录
2019-3-3
发表于 2018-7-30 07:01:35 | 显示全部楼层
每天都来中国高清论坛看看有什么电影!
回复 支持 反对

使用道具 举报

金鸡奖主角

高清币
85
金钱
4103
鲜花
0
在线时间
1627 小时
最后登录
2019-4-23
发表于 2018-7-30 07:02:15 | 显示全部楼层
每天都来中国高清论坛看看有什么电影!
回复 支持 反对

使用道具 举报

永恒神话

高清币
9452
金钱
32287
鲜花
10
在线时间
2112 小时
最后登录
2019-4-23
发表于 2018-7-30 07:23:08 | 显示全部楼层
感谢分享精彩好电影!!!
回复 支持 反对

使用道具 举报

永恒神话

高清币
5899
金钱
11853
鲜花
0
在线时间
1219 小时
最后登录
2019-4-23
发表于 2018-7-30 07:56:33 | 显示全部楼层
中国高清论坛很棒!
回复 支持 反对

使用道具 举报

天王巨星

高清币
14
金钱
3298
鲜花
0
在线时间
729 小时
最后登录
2019-2-21
发表于 2018-7-30 08:01:07 | 显示全部楼层
谢谢分享 谢谢分享
回复 支持 反对

使用道具 举报

超级明星

高清币
2146
金钱
5233
鲜花
0
在线时间
558 小时
最后登录
2019-4-23
发表于 2018-7-30 08:02:26 | 显示全部楼层
感谢楼主分享精彩电影!
回复 支持 反对

使用道具 举报

懒得打字嘛,点击右侧快捷回复 【右侧内容,后台自定义】
您需要登录后才可以回帖 登录 | 立即注册

本版积分规则

QQ|手机版|小黑屋|中国高清论坛 ( 黔ICP备16007815号-1 )

GMT+8, 2019-4-23 12:43 , Processed in 0.050093 second(s), 28 queries .

Powered by Discuz! X3.4

© 2001-2017 Comsenz Inc.

快速回复 返回顶部 返回列表