请选择 进入手机版 | 继续访问电脑版

中国高清论坛

 找回密码
 立即注册
搜索
查看: 3623|回复: 39

[惊悚片] 背面 Rearview.2017.1080p.AMZN.WEBRip.DDP2.0.x264-iKA 2.15GB

[复制链接]

龙行天下

高清币
33072
金钱
7152
鲜花
30
在线时间
1446 小时
最后登录
2019-4-12
发表于 2018-7-30 17:37:09 | 显示全部楼层 |阅读模式
◎译  名 背面
◎片  名 Rearview
◎年  代 2017
◎产  地 英国
◎类  别 惊悚
◎语  言 英语
◎上映日期 2017
◎IMDb评分 7.0/10 from 6 users
◎导  演 Avril E. Russell
◎编  剧 Avril E. Russell
◎主  演 安东尼娅·托马斯 Antonia Thomas
      Jamie Sives
      Jay Simpson
      James Floyd
      Paul Rattray



◎简  介  

  Based on a true events a girl fights for her live on the Road - Tears Of Souls -chased by a gang of slave traffickers.

Video
ID : 1
Format : AVC
Format/Info : Advanced Video Codec
Format profile : High@L4
Format settings : CABAC / 4 Ref Frames
Format settings, CABAC : Yes
Format settings, ReFrames : 4 frames
Codec ID : V_MPEG4/ISO/AVC
Duration : 1 h 20 min
Bit rate : 3 602 kb/s
Width : 1 920 pixels
Height : 1 080 pixels
Display aspect ratio : 16:9
Frame rate mode : Constant
Frame rate : 24.000 FPS
Color space : YUV
Chroma subsampling : 4:2:0
Bit depth : 8 bits
Scan type : Progressive
Bits/(Pixel*Frame) : 0.072
Stream size : 2.03 GiB (94%)
Language : English
Default : Yes
Forced : No
Color range : Limited
Color primaries : BT.709
Transfer characteristics : BT.709
Matrix coefficients : BT.709

Audio
ID : 2
Format : E-AC-3
Format/Info : Enhanced AC-3
Commercial name : Dolby Digital Plus
Codec ID : A_EAC3
Duration : 1 h 20 min
Bit rate mode : Constant
Bit rate : 224 kb/s
Channel(s) : 2 channels
Channel layout : L R
Sampling rate : 48.0 kHz
Frame rate : 31.250 FPS (1536 SPF)
Compression mode : Lossy
Stream size : 129 MiB (6%)
Language : English
Service kind : Complete Main
Default : Yes
Forced : No

Text
ID : 3
Format : UTF-8
Codec ID : S_TEXT/UTF8
Codec ID/Info : UTF-8 Plain Text
Duration : 1 h 20 min
Bit rate : 34 b/s
Count of elements : 919
Stream size : 20.3 KiB (0%)
Language : English
Default : No
Forced : No

游客,如果您要查看本帖隐藏内容请回复
回复

使用道具 举报

人气偶像

高清币
8
金钱
1623
鲜花
0
在线时间
208 小时
最后登录
2019-4-22
发表于 2018-7-30 17:48:23 | 显示全部楼层
楼主分享的高清电影太好了!
回复 支持 反对

使用道具 举报

人气偶像

高清币
0
金钱
1712
鲜花
0
在线时间
313 小时
最后登录
2019-4-17
发表于 2018-7-30 17:51:03 | 显示全部楼层
hghjgkhkjhjkgjfgffhj
回复 支持 反对

使用道具 举报

金鸡奖主角

高清币
3
金钱
4601
鲜花
0
在线时间
695 小时
最后登录
2019-3-25
发表于 2018-7-30 18:01:45 | 显示全部楼层
楼主分享的高清电影太好了!
回复 支持 反对

使用道具 举报

金鸡奖主角

高清币
350
金钱
3534
鲜花
0
在线时间
227 小时
最后登录
2019-3-20
发表于 2018-7-30 18:22:22 | 显示全部楼层
每天都来中国高清论坛看看有什么电影!
回复 支持 反对

使用道具 举报

天王巨星

高清币
-1
金钱
3472
鲜花
0
在线时间
1511 小时
最后登录
2019-3-15
发表于 2018-7-30 18:40:09 | 显示全部楼层
下了看看,谢谢分享
回复 支持 反对

使用道具 举报

天王巨星

高清币
382
金钱
1482
鲜花
0
在线时间
162 小时
最后登录
2018-9-14
发表于 2018-7-30 19:16:33 | 显示全部楼层
[特效中文硬字幕] The.15.17.to.Paris.1080
回复 支持 反对

使用道具 举报

超级明星

高清币
5
金钱
8585
鲜花
0
在线时间
2504 小时
最后登录
2019-3-8
发表于 2018-7-30 19:23:22 | 显示全部楼层
感谢楼主分享精彩电影!
回复 支持 反对

使用道具 举报

天王巨星

高清币
314
金钱
2185
鲜花
0
在线时间
310 小时
最后登录
2019-2-2
发表于 2018-7-30 20:29:12 | 显示全部楼层
每天都来中国高清论坛看看有什么电影!
回复 支持 反对

使用道具 举报

影坛巨星

高清币
2943
金钱
6656
鲜花
0
在线时间
677 小时
最后登录
2019-4-22
发表于 2018-7-31 08:43:36 | 显示全部楼层
中国高清论坛很棒!
回复 支持 反对

使用道具 举报

懒得打字嘛,点击右侧快捷回复 【右侧内容,后台自定义】
您需要登录后才可以回帖 登录 | 立即注册

本版积分规则

QQ|手机版|小黑屋|中国高清论坛 ( 黔ICP备16007815号-1 )

GMT+8, 2019-4-23 00:24 , Processed in 0.057889 second(s), 28 queries .

Powered by Discuz! X3.4

© 2001-2017 Comsenz Inc.

快速回复 返回顶部 返回列表