请选择 进入手机版 | 继续访问电脑版

中国高清论坛

 找回密码
 立即注册
搜索
查看: 3794|回复: 53

[传记片] 川流不息:水之爱 Flow.For.Love.of.Water.2008.1080p.AMZN.WEBRip.DD2.0.x264- 5.6G

[复制链接]

龙行天下

高清币
33072
金钱
7152
鲜花
30
在线时间
1446 小时
最后登录
2019-4-12
发表于 2018-7-30 17:57:20 | 显示全部楼层 |阅读模式

◎译  名 川流不息:水之爱
◎片  名 Flow, For Love of Water
◎年  代 2008
◎产  地 美国
◎类  别 纪录片
◎语  言 英语
◎上映日期 2008-02-08
◎IMDb评分 7.7/10 from 1058 users
◎豆瓣评分 7.6/10 from 68 users
◎导  演 Irena Salina

◎标  签 纪录片 | 美国 | 水资源 | Documentary | 环保 | 美国电影 | 我看过的电影 | 我看过的英语电影

◎简  介  

  水对人类来说必不可少,是地球上所有生物的生命之源。然而,这种重要的资源正在日渐减少,而人类的贪婪就是最大的原因。
Coca- cola的所出的瓶装水,已经成为可口可乐公司最赚钱的一项商品之一。在日本,可口可乐的水比较起来,是属於较便宜的选择之一。而在前几个星期的美国共和党大会和中国的奥运上,可口可乐跟百事可乐更是榜上有名的赞助厂商。在欧洲,你连去到音乐会场里都是不准自带水的,非得掏钱购买会场里的啤酒跟软性饮料。
这个秋天,如往常的又来几部揭发性的纪录片。这次谈到的是水。你知道你喝的水可比石油还贵,你知道你喝的水可是在大卖场上经过半年的囤积,你知道澳洲现在正面临缺水之苦,估计几年后将出现澳洲的缺水难民。导演莎玲娜在2001年阅读到the nation一篇题为Who owns water?的文章后展开它对水资源私有化的探索,走遍亚非欧等地区找寻企业独佔水资源的真像。

Video
ID : 1
Format : AVC
Format/Info : Advanced Video Codec
Format profile : High@L4
Format settings : CABAC / 4 Ref Frames
Format settings, CABAC : Yes
Format settings, ReFrames : 4 frames
Codec ID : V_MPEG4/ISO/AVC
Duration : 1 h 23 min
Bit rate mode : Constant
Bit rate : 9 413 kb/s
Nominal bit rate : 10 000 kb/s
Width : 1 920 pixels
Height : 1 080 pixels
Display aspect ratio : 16:9
Frame rate mode : Constant
Frame rate : 29.970 (30000/1001) FPS
Color space : YUV
Chroma subsampling : 4:2:0
Bit depth : 8 bits
Scan type : Progressive
Bits/(Pixel*Frame) : 0.151
Stream size : 5.47 GiB (98%)
Default : Yes
Forced : No
Color range : Limited
Color primaries : BT.709
Transfer characteristics : BT.709
Matrix coefficients : BT.709

Audio
ID : 2
Format : E-AC-3
Format/Info : Enhanced AC-3
Commercial name : Dolby Digital Plus
Codec ID : A_EAC3
Duration : 1 h 23 min
Bit rate mode : Constant
Bit rate : 224 kb/s
Channel(s) : 2 channels
Channel layout : L R
Sampling rate : 48.0 kHz
Frame rate : 31.250 FPS (1536 SPF)
Compression mode : Lossy
Stream size : 133 MiB (2%)
Language : English
Service kind : Complete Main
Default : Yes
Forced : No

Text #1
ID : 3
Format : UTF-8
Codec ID : S_TEXT/UTF8
Codec ID/Info : UTF-8 Plain Text
Duration : 1 h 17 min
Bit rate : 70 b/s
Count of elements : 1832
Stream size : 40.3 KiB (0%)
Language : English
Default : No
Forced : No

Text #2
ID : 4
Format : UTF-8
Codec ID : S_TEXT/UTF8
Codec ID/Info : UTF-8 Plain Text
Duration : 1 h 17 min
Bit rate : 70 b/s
Count of elements : 1839
Stream size : 40.4 KiB (0%)
Title : SDH
Language : English
Default : No
Forced : No

游客,如果您要查看本帖隐藏内容请回复
回复

使用道具 举报

天王巨星

高清币
88
金钱
2396
鲜花
0
在线时间
969 小时
最后登录
2019-4-22
发表于 2018-7-30 18:01:02 | 显示全部楼层
每天都来中国高清论坛看看有什么电影!
回复 支持 反对

使用道具 举报

金鸡奖主角

高清币
350
金钱
3534
鲜花
0
在线时间
227 小时
最后登录
2019-3-20
发表于 2018-7-30 18:19:09 | 显示全部楼层
新服务对象是一个饱受睡眠折磨的家庭
回复 支持 反对

使用道具 举报

知名艺人

高清币
2
金钱
591
鲜花
0
在线时间
93 小时
最后登录
2019-4-3
发表于 2018-7-30 18:19:10 | 显示全部楼层
中国高清论坛很棒!
回复 支持 反对

使用道具 举报

超级明星

高清币
5
金钱
8585
鲜花
0
在线时间
2504 小时
最后登录
2019-3-8
发表于 2018-7-30 18:24:07 | 显示全部楼层
楼主分享的高清电影太好了!
回复 支持 反对

使用道具 举报

好莱坞明星

高清币
25
金钱
7055
鲜花
0
在线时间
2831 小时
最后登录
2019-4-22
发表于 2018-7-30 18:39:27 | 显示全部楼层
多谢楼主分享资源  好的 顶
回复 支持 反对

使用道具 举报

天王巨星

高清币
-1
金钱
3472
鲜花
0
在线时间
1511 小时
最后登录
2019-3-15
发表于 2018-7-30 18:39:40 | 显示全部楼层
小成本制作,有时也不错
回复 支持 反对

使用道具 举报

VIP贵宾

高清币
6
金钱
1367
鲜花
0
在线时间
326 小时
最后登录
2019-4-22
发表于 2018-7-30 18:53:00 | 显示全部楼层
sssssssss
回复 支持 反对

使用道具 举报

天王巨星

高清币
431
金钱
1882
鲜花
0
在线时间
167 小时
最后登录
2019-4-14
发表于 2018-7-30 18:57:29 | 显示全部楼层
每天都来中国高清论坛看看有什么电影!
回复 支持 反对

使用道具 举报

天王巨星

高清币
42
金钱
1849
鲜花
0
在线时间
277 小时
最后登录
2019-4-10
发表于 2018-7-30 19:00:27 | 显示全部楼层
感谢楼主分享精彩电影!
回复 支持 反对

使用道具 举报

懒得打字嘛,点击右侧快捷回复 【右侧内容,后台自定义】
您需要登录后才可以回帖 登录 | 立即注册

本版积分规则

QQ|手机版|小黑屋|中国高清论坛 ( 黔ICP备16007815号-1 )

GMT+8, 2019-4-23 00:42 , Processed in 0.051168 second(s), 28 queries .

Powered by Discuz! X3.4

© 2001-2017 Comsenz Inc.

快速回复 返回顶部 返回列表