请选择 进入手机版 | 继续访问电脑版

中国高清论坛

 找回密码
 立即注册
搜索
查看: 3968|回复: 99

[悬疑片] 超越黑夜 Beyond.the.Night.2018.1080p.AMZN.WEBRip.DDP5.1.x264-NTG 6.15GB

  [复制链接]

龙行天下

高清币
33072
金钱
7152
鲜花
30
在线时间
1446 小时
最后登录
2019-4-12
发表于 2018-7-31 10:45:49 | 显示全部楼层 |阅读模式
◎译  名 超越黑夜
◎片  名 Beyond the Night
◎年  代 2018
◎产  地 美国
◎类  别 剧情 / 悬疑 / 惊悚
◎上映日期 2019-01(美国)
◎IMDb评分 6.3/10 from 16 users
◎片  长 98分钟
◎导  演 Jason Noto
◎编  剧 Jason Noto
◎主  演 坦米·布兰查德 Tammy Blanchard
      赞恩·霍尔茨 Zane Holtz
      Azhy Robertson
      凯特琳·梅纳 Caitlin Mehner
      蔡斯·凯利 Chance Kelly
      David Fierro
      伊内徳·格兰汉姆 Enid Graham
      Joseph Castillo-Midyett
      尼尔·哈夫 Neal Huff
      舍曼·霍华德 Sherman Howard
      斯基普·萨德思 Skipp Sudduth


◎简  介  

  When a soldier's son reveals damning information about a local gangster's missing daughter| a war of attrition wreaks havoc on their forgotten coal mining town.

Video
ID : 1
Format : AVC
Format/Info : Advanced Video Codec
Format profile : High@L4
Format settings : CABAC / 4 Ref Frames
Format settings, CABAC : Yes
Format settings, ReFrames : 4 frames
Codec ID : V_MPEG4/ISO/AVC
Duration : 1 h 38 min
Bit rate mode : Constant
Bit rate : 8 330 kb/s
Nominal bit rate : 10 000 kb/s
Width : 1 920 pixels
Height : 816 pixels
Display aspect ratio : 2.35:1
Frame rate mode : Constant
Frame rate : 23.976 (24000/1001) FPS
Color space : YUV
Chroma subsampling : 4:2:0
Bit depth : 8 bits
Scan type : Progressive
Bits/(Pixel*Frame) : 0.222
Stream size : 5.71 GiB (93%)
Default : Yes
Forced : No
Color range : Limited
Color primaries : BT.709
Transfer characteristics : BT.709
Matrix coefficients : BT.709

Audio
ID : 2
Format : E-AC-3
Format/Info : Enhanced AC-3
Commercial name : Dolby Digital Plus
Codec ID : A_EAC3
Duration : 1 h 38 min
Bit rate mode : Constant
Bit rate : 640 kb/s
Channel(s) : 6 channels
Channel layout : L R C LFE Ls Rs
Sampling rate : 48.0 kHz
Frame rate : 31.250 FPS (1536 SPF)
Compression mode : Lossy
Stream size : 449 MiB (7%)
Language : English
Service kind : Complete Main
Default : Yes
Forced : No

Text
ID : 3
Format : UTF-8
Codec ID : S_TEXT/UTF8
Codec ID/Info : UTF-8 Plain Text
Duration : 1 h 37 min
Bit rate : 49 b/s
Count of elements : 1247
Stream size : 35.5 KiB (0%)
Title : SDH
Language : English
Default : No
Forced : No

游客,如果您要查看本帖隐藏内容请回复
回复

使用道具 举报

永恒神话

高清币
5557
金钱
12659
鲜花
0
在线时间
1081 小时
最后登录
2019-4-21
发表于 2018-7-31 10:47:47 | 显示全部楼层
66666666666666666666666666666666666666666666
回复 支持 反对

使用道具 举报

金鸡奖主角

高清币
548
金钱
3871
鲜花
0
在线时间
283 小时
最后登录
2019-4-22
发表于 2018-7-31 10:50:54 | 显示全部楼层
很好谢谢分享
回复 支持 反对

使用道具 举报

superstar

高清币
495
金钱
14057
鲜花
0
在线时间
1481 小时
最后登录
2019-4-22
发表于 2018-7-31 10:58:33 | 显示全部楼层
中国高清论坛很棒!
回复 支持 反对

使用道具 举报

人气偶像

高清币
19
金钱
525
鲜花
0
在线时间
36 小时
最后登录
2018-12-19
发表于 2018-7-31 11:00:34 | 显示全部楼层
天天来看中国高清论坛
回复 支持 反对

使用道具 举报

人气偶像

高清币
133
金钱
820
鲜花
0
在线时间
58 小时
最后登录
2019-4-21
发表于 2018-7-31 11:01:02 | 显示全部楼层

楼主分享的高清电影太好了!
回复 支持 反对

使用道具 举报

金鸡奖主角

高清币
114
金钱
4033
鲜花
0
在线时间
542 小时
最后登录
2019-4-22
发表于 2018-7-31 11:06:22 | 显示全部楼层
每天都来中国高清论坛看看有什么电影!
回复 支持 反对

使用道具 举报

人气偶像

高清币
2
金钱
883
鲜花
0
在线时间
125 小时
最后登录
2019-3-22
发表于 2018-7-31 11:10:01 | 显示全部楼层
其实我一直觉得楼主的品味不错!呵呵!
回复 支持 反对

使用道具 举报

天王巨星

高清币
135
金钱
1866
鲜花
0
在线时间
491 小时
最后登录
2019-4-22
发表于 2018-7-31 11:16:51 | 显示全部楼层

中国高清论坛很棒!
回复 支持 反对

使用道具 举报

超级明星

高清币
5
金钱
8585
鲜花
0
在线时间
2504 小时
最后登录
2019-3-8
发表于 2018-7-31 11:40:14 | 显示全部楼层
楼主分享的高清电影太好了!
回复 支持 反对

使用道具 举报

懒得打字嘛,点击右侧快捷回复 【右侧内容,后台自定义】
您需要登录后才可以回帖 登录 | 立即注册

本版积分规则

QQ|手机版|小黑屋|中国高清论坛 ( 黔ICP备16007815号-1 )

GMT+8, 2019-4-23 00:42 , Processed in 0.053385 second(s), 28 queries .

Powered by Discuz! X3.4

© 2001-2017 Comsenz Inc.

快速回复 返回顶部 返回列表