请选择 进入手机版 | 继续访问电脑版

中国高清论坛

 找回密码
 立即注册
搜索
查看: 4952|回复: 153

[传记片] 性别革命之女:达拉斯牛仔啦啦队不为人知的故事 2018.1080p..WEB.DDP5.1.x264-SiGM...

  [复制链接]

龙行天下

高清币
33072
金钱
7152
鲜花
30
在线时间
1446 小时
最后登录
2019-4-12
发表于 2018-7-31 15:29:12 | 显示全部楼层 |阅读模式
◎译  名 性别革命之女:达拉斯牛仔啦啦队不为人知的故事
◎片  名 Daughters of the Sexual Revolution: The Untold Story of the Dallas Cowboys Cheerleaders
◎年  代 2018
◎产  地 美国
◎类  别 纪录片
◎语  言 英语
◎上映日期 2018-03-11(美国)
◎IMDb评分 7.6/10 from 41 users
◎导  演 Dana Adam Shapiro
◎主  演 Cindy Bennett
      Tami Barber
      Kim Bateman Bue
      Tammie Curren Caruthers
      Candy Evans


◎简  介  

  The never-before-told story of Suzanne Mitchell| the fiercely-loyal den mother of the original Dallas Cowboys Cheerleaders. Seen by many as regressive andexploitative| this diverse sisterhood of small-town "girls next door" became a controversial pop culture phenomenon at the height of the Sexual Revolution| changingthe game of football -- and America -- forever.

Video
ID : 1
Format : AVC
Format/Info : Advanced Video Codec
Format profile : High@L4
Format settings : CABAC / 4 Ref Frames
Format settings, CABAC : Yes
Format settings, ReFrames : 4 frames
Codec ID : V_MPEG4/ISO/AVC
Duration : 1 h 20 min
Bit rate : 7 364 kb/s
Width : 1 920 pixels
Height : 1 080 pixels
Display aspect ratio : 16:9
Frame rate mode : Constant
Frame rate : 23.976 (24000/1001) FPS
Color space : YUV
Chroma subsampling : 4:2:0
Bit depth : 8 bits
Scan type : Progressive
Bits/(Pixel*Frame) : 0.148
Stream size : 4.15 GiB (92%)
Default : Yes
Forced : No
Color range : Limited
Color primaries : BT.709
Transfer characteristics : BT.709
Matrix coefficients : BT.709

Audio
ID : 2
Format : E-AC-3
Format/Info : Enhanced AC-3
Commercial name : Dolby Digital Plus
Codec ID : A_EAC3
Duration : 1 h 20 min
Bit rate mode : Constant
Bit rate : 640 kb/s
Channel(s) : 6 channels
Channel layout : L R C LFE Ls Rs
Sampling rate : 48.0 kHz
Frame rate : 31.250 FPS (1536 SPF)
Compression mode : Lossy
Stream size : 369 MiB (8%)
Language : English
Service kind : Complete Main
Default : Yes
Forced : No

Text
ID : 3
Format : UTF-8
Codec ID : S_TEXT/UTF8
Codec ID/Info : UTF-8 Plain Text
Duration : 1 h 16 min
Bit rate : 105 b/s
Count of elements : 1301
Stream size : 59.3 KiB (0%)
Title : English (SDH)
Language : English
Default : No
Forced : No

游客,如果您要查看本帖隐藏内容请回复
回复

使用道具 举报

金鸡奖主角

高清币
122
金钱
3571
鲜花
0
在线时间
631 小时
最后登录
2019-4-21
发表于 2018-7-31 15:33:11 | 显示全部楼层
每天都来中国高清论坛看看有什么电影!
回复 支持 反对

使用道具 举报

天王巨星

高清币
7
金钱
3316
鲜花
0
在线时间
898 小时
最后登录
2019-4-21
发表于 2018-7-31 15:33:38 | 显示全部楼层
非常好!!!!
回复 支持 反对

使用道具 举报

人气偶像

高清币
5
金钱
990
鲜花
0
在线时间
184 小时
最后登录
2019-4-11
发表于 2018-7-31 15:36:55 | 显示全部楼层
但过分的事过分的事而他惹我特务反倒是广泛的热飞反攻倒算
回复 支持 反对

使用道具 举报

人气偶像

高清币
9
金钱
1333
鲜花
0
在线时间
251 小时
最后登录
2019-4-12
发表于 2018-7-31 15:40:14 | 显示全部楼层
感谢楼主分享精彩电影!
回复 支持 反对

使用道具 举报

永恒神话

高清币
4999
金钱
20210
鲜花
0
在线时间
934 小时
最后登录
2019-4-22
发表于 2018-7-31 15:40:47 | 显示全部楼层
每天都来中国高清论坛看看有什么电影!
回复 支持 反对

使用道具 举报

好莱坞明星

高清币
134
金钱
5722
鲜花
0
在线时间
771 小时
最后登录
2019-4-17
发表于 2018-7-31 15:42:01 | 显示全部楼层
楼主分享的高清电影太好了!
回复 支持 反对

使用道具 举报

永恒神话

高清币
15858
金钱
23874
鲜花
0
在线时间
3484 小时
最后登录
2019-4-22
发表于 2018-7-31 15:44:45 | 显示全部楼层
我看不错噢 谢谢楼主!
回复 支持 反对

使用道具 举报

永恒神话

高清币
15858
金钱
23874
鲜花
0
在线时间
3484 小时
最后登录
2019-4-22
发表于 2018-7-31 15:45:53 | 显示全部楼层
感谢楼主的无私分享!
回复 支持 反对

使用道具 举报

金鸡奖主角

高清币
465
金钱
4465
鲜花
0
在线时间
1716 小时
最后登录
2019-4-22
发表于 2018-7-31 15:46:42 | 显示全部楼层
每天都来中国高清论坛看看有什么电影!
回复 支持 反对

使用道具 举报

懒得打字嘛,点击右侧快捷回复 【右侧内容,后台自定义】
您需要登录后才可以回帖 登录 | 立即注册

本版积分规则

QQ|手机版|小黑屋|中国高清论坛 ( 黔ICP备16007815号-1 )

GMT+8, 2019-4-23 00:05 , Processed in 0.050555 second(s), 28 queries .

Powered by Discuz! X3.4

© 2001-2017 Comsenz Inc.

快速回复 返回顶部 返回列表