请选择 进入手机版 | 继续访问电脑版

中国高清论坛

 找回密码
 立即注册
搜索
查看: 8469|回复: 590

[1080P] 新版007合集2006-2015 皇家赌场+量子危机+天幕杀机+幽灵党 James Bond Daniel Craig Collection (2006-201

  [复制链接]

超级版主

高清币
1144973
金钱
32972
鲜花
7
在线时间
4478 小时
最后登录
2019-3-27
发表于 2018-9-2 11:55:39 | 显示全部楼层 |阅读模式












皇家赌场
片名:Casino Royale
译名:皇家赌场/新铁金刚智破皇家赌场
出品:Sony Pictures Entertainment
发行:哥伦比亚,米高梅Columbia Pictures,MGM
类型:动作 冒险 惊悚
导演:马丁·坎贝尔Martin Campbell
编剧:保罗·哈吉斯
制片:芭芭拉·布洛克利
分级:美国PG-13
片长:144分钟
上映时间:2006年11月17日
北美票房:1亿5570万美元(2006年第8名)
主演:
丹尼尔·克雷格Daniel Craig
伊娃·格林Eva Green
马德斯·米克尔森Mads Mikkelsen
凯特林娜·莫瑞诺Caterina Murino
朱迪·丹奇Judi Dench
片长:144分钟
影片简介:
邦德的第一项任务,是到马达加斯加岛暗中监视一名叫做莫拉卡的恐怖分子。邦德发现形势的发展与预先的计划有了很大的出入,于是他决定展开调查。调查必须独立于MI6进行,这样才可能把剩余的恐怖分子全部引出来,然后一网打尽。邦德根据找到的线索来到了巴哈马,遇到了迪米特瑞斯和他的女朋友苏兰奇。他发现迪米特瑞斯与一个叫做玛奇弗的人有着千丝万缕的联系,而这个玛奇弗正是为世界恐怖组织提供资金的人。秘密情报显示,玛奇弗即将在蒙特里格罗的皇家赌场进行一场赌注异常巨大的豪赌。为了逼玛奇弗与MI6合作,邦德必须参与这场赌局,让他输掉所有的钱。去往赌场的途中,邦德遇上了财务部的vesper并且爱上了她。邦德几乎拆穿了奇弗瑞的伎俩时,玛奇弗让邦德输掉了所有的钱并且在邦德的酒里下毒。邦德几乎要死了的时候vesper救了邦德,而美国的同仁资助邦德资金让邦德继续这场赌局。终于邦德赢得了赌局,然而就这个时候vesper被绑架了。邦德赶去救vesper,在中途遭玛奇弗算计。由于奇弗瑞输掉了所有的钱,在审讯邦德的时候恐怖组织的人赶来杀掉了玛奇弗,无意中救了邦德和vesper。邦德醒来后怀疑是同为MI6工作的Villacis出卖了他并且让玛奇弗赢掉了他的钱。邦德辞去了特工的工作,准备与vesper共度余生的时候,vesper将他赢来的钱给了恐怖组织的人。邦德去追回那笔钱的时候vesper无意再活下去而死掉了。vesper的有罪同时证明了Villacis的清白。后来邦德在vesper的手机里找到了怀特先生的名字,他知道这是vesper给他留下的线索。邦德找到了怀特,并且将他带回了MI6。
  1. Casino Royale (2006) 1080p BluRay x264 Dual Audio [Hindi DD5.1 - English DD5.1] - Msubs ~ Ranvijay

  2. General
  3. Format : Matroska
  4. Format version : Version 4 / Version 2
  5. File size : 5.46 GiB
  6. Duration : 2 h 24 min
  7. Overall bit rate : 5 408 kb/s
  8. Movie name : Casino Royale (2006) 1080p BluRay x264 Dual Audio [Hindi DD5.1 - English DD5.1] - Msubs ~ Ranvijay

  9. Video
  10. ID : 1
  11. Format : AVC
  12. Format/Info : Advanced Video Codec
  13. Duration : 2 h 24 min
  14. Bit rate : 4 500 kb/s
  15. Width : 1 920 pixels
  16. Height : 798 pixels
  17. Display aspect ratio : 2.40:1
  18. Frame rate mode : Constant
  19. Frame rate : 23.976 (24000/1001) FPS
  20. Color space : YUV
  21. Chroma subsampling : 4:2:0
  22. Bit depth : 8 bits
  23. Scan type : Progressive
  24. Bits/(Pixel*Frame) : 0.122
  25. Stream size : 4.54 GiB (83%)
  26. Title : ~Ranvijay~

  27. Audio #1
  28. ID : 2
  29. Format : AC-3
  30. Bit rate mode : Constant
  31. Bit rate : 448 kb/s
  32. Channel(s) : 6 channels
  33. Channel positions : Front: L C R, Side: L R, LFE
  34. Title : ~Ranvijay~
  35. Language : Hindi

  36. Audio #2
  37. ID : 3
  38. Format : AC-3
  39. Bit rate mode : Constant
  40. Bit rate : 448 kb/s
  41. Channel(s) : 6 channels
  42. Channel positions : Front: L C R, Side: L R, LFE
  43. Title : ~Ranvijay~
  44. Language : English

  45. Text #1
  46. ID : 4
  47. Format : PGS
  48. Title : ~Ranvijay~
  49. Language : English

  50. Text #2
  51. ID : 5
  52. Format : PGS
  53. Title : ~Ranvijay~
  54. Language : Hindi
复制代码





















片名:Quantum of Solace
译名:量子危机//安慰量子/微量情愫/007:大破量子危机
导演:马克·福斯特Marc Forster
编剧:尼尔·珀维斯Neal Purvis ....screenplay
罗伯特·维德Robert Wade ....(adaptation)/screenplay
保罗·哈吉斯Paul Haggis ....screenplay
主演:
丹尼尔·克雷格Daniel Craig ....James Bond
欧嘉·柯瑞兰寇Olga Kurylenko ....Camille
杰玛·阿特登Gemma Arterton
朱迪·丹奇Judi Dench
类型:动作/惊悚/冒险
片长:106分钟
制作周期:2007年~2008年
制作成本:$225,000,000/estimated
影片简介:
邦德被他钟情的女子Vesper背叛,开始执行他的一下个任务。经过对一个叫怀特(加斯帕·克里斯滕森饰)的男子的审讯,邦德和顶头上司M女士(仍由朱迪·丹奇扮演)得到了一个曾经勒索过Vesper的犯罪组织的情报,这个组织非常复杂,危害程度超过任何人的想象。
在随时随地有可能遭遇背叛、谋杀和骗局的情势中,邦德与他在总部的老搭档一道,奋勇过关,逐渐逼近事实真相。而邦德发现,如果想成功破坏Greene的险恶计划,停止他的组织犯罪活动,最终挫败这个惊天阴谋,他不仅要比中央情报局、恐怖分子领先一步,而且在关键时刻,他还必须越过顶头上司M女士,独自行动……
  1. Quantum of Solace (2008) 1080p BluRay x264 Dual Audio [Hindi DD5.1 - English DD5.1] - Msubs ~ Ranvijay

  2. General
  3. Format : Matroska
  4. Format version : Version 4 / Version 2
  5. File size : 4.39 GiB
  6. Duration : 1 h 46 min
  7. Overall bit rate : 5 912 kb/s
  8. Movie name : Quantum of Solace (2008) 1080p BluRay x264 Dual Audio [Hindi DD5.1 - English DD5.1] - Msubs ~ Ranvijay

  9. Video
  10. ID : 1
  11. Format : AVC
  12. Format/Info : Advanced Video Codec
  13. Duration : 1 h 46 min
  14. Bit rate : 5 000 kb/s
  15. Width : 1 920 pixels
  16. Height : 816 pixels
  17. Display aspect ratio : 2.35:1
  18. Frame rate mode : Constant
  19. Frame rate : 23.976 (24000/1001) FPS
  20. Color space : YUV
  21. Chroma subsampling : 4:2:0
  22. Bit depth : 8 bits
  23. Scan type : Progressive
  24. Bits/(Pixel*Frame) : 0.133
  25. Stream size : 3.71 GiB (85%)
  26. Title : ~Ranvijay~

  27. Audio #1
  28. ID : 2
  29. Format : AC-3
  30. Bit rate mode : Constant
  31. Bit rate : 448 kb/s
  32. Channel(s) : 6 channels
  33. Channel positions : Front: L C R, Side: L R, LFE
  34. Title : ~Ranvijay~
  35. Language : Hindi

  36. Audio #2
  37. ID : 3
  38. Format : AC-3
  39. Bit rate mode : Constant
  40. Bit rate : 448 kb/s
  41. Channel(s) : 6 channels
  42. Channel positions : Front: L C R, Side: L R, LFE
  43. Title : ~Ranvijay~
  44. Language : English

  45. Text #1
  46. ID : 4
  47. Format : PGS
  48. Title : ~Ranvijay~
  49. Language : English

  50. Text #2
  51. ID : 5
  52. Format : PGS
  53. Title : ~Ranvijay~
  54. Language : Hindi
复制代码




















◎中文片名:007:天降杀机
◎更多中文名:邦德23、天降杀机 ,天幕坠落,007:全权委托, 007:大破天幕杀机
◎国家/地区:英国/美国
◎类型:动作/惊悚/冒险/谍战
◎对白语言:英语
◎发行公司:索尼哥伦比亚影片公司
◎导演:萨姆·门德斯
◎主演:丹尼尔·克雷格、拉尔夫·费因斯、哈维尔·巴登、贝纳尼丝·玛尔洛、娜奥米·哈里斯、朱迪·丹奇、海伦·麦克洛瑞
◎上映日期:2012年11月9日 美国
简介
数月前军情六处一块记载了潜伏于全世界恐怖组织内部所有特工名单信息的硬盘丢失,而追索硬盘的行动也以失败告终。在此之后,行动主要负责人M(朱迪·丹奇 Judi Dench 饰)被高层解雇,而军情六处也遭到惨烈的袭击,伤亡惨重。为了查到幕后真凶,M召来佯死的传奇特工詹姆士·邦德(丹尼尔·克雷格 Daniel Craig 饰)。经过一轮严苛的特训和测试,邦德重新服役。在伊芙(娜奥米·哈里斯 Naomie Harris 饰)和新搭档Q(本·卫肖 Ben Whishaw 饰)的协助下,邦德追寻着某前CIA特工的踪迹来到繁华大都会上海。
  在这一过程中,特工的名单不断泄露,而邦德最新一次的生死冒险也拉开序幕……
幕后
早先IGN报道,根据CommanderBond透露的消息,007系列电影的制片人Michael.G.Wilson在本周出席在伦敦举办的Ivor Novello大奖会上透露他们已经开始着手筹划第23集007邦德电影,丹尼尔克雷格,毫无疑问的,将继续在这部影片里扮演邦德。
之后,索尼公司召开发布会,确定最终官方片名:《007:天降杀机》(SKYFALL);并且透漏了主演名单,邦女郎等人选终于水落石出;此外,影片将在英国伦敦、土耳其伊斯坦布尔、澳门以及中国上海等地取景拍摄。
导演萨姆·门德斯刚刚召开过发布会,不出几天,邦德新片《007:天降杀机》已经难抵狗仔攻势,曝光了片场照片。照片上主演丹尼尔·克雷格一身休闲打扮,头发竟然比上一部影片中更短,估计他不仅是历史上第一个金发邦德,也有可能是历史上头发最短的邦德。扮演M女士的朱迪·丹奇也现身片场,二人在新片中的关系经历了一些波折。
片名意指感情戏 重磅戏骨搭配新版邦女郎
在第23部邦德电影中,除了能看到丹尼尔·克雷格、朱迪·丹奇等老面孔之外,还有哈维尔·巴登、贝纳尼丝·玛尔洛、拉尔夫·费因斯、阿尔伯特·芬尼、本·威士肖和娜奥米·哈里斯等新面孔。尤其是贝纳尼丝和娜奥米扮演的两位邦女郎都十分令人期待。影帝哈维尔巴登演反派,剧本堪比《皇家赌场》。
  1. Skyfall (2012) 1080p BluRay x264 Dual Audio [Hindi DD5.1 - English DD5.1] - Msubs ~ Ranvijay

  2. General
  3. Format : Matroska
  4. Format version : Version 4 / Version 2
  5. File size : 5.41 GiB
  6. Duration : 2 h 23 min
  7. Overall bit rate : 5 406 kb/s
  8. Movie name : Skyfall (2012) 1080p BluRay x264 Dual Audio [Hindi DD5.1 - English DD5.1] - Msubs ~ Ranvijay

  9. Video
  10. ID : 1
  11. Format : AVC
  12. Duration : 2 h 23 min
  13. Bit rate : 4 500 kb/s
  14. Width : 1 920 pixels
  15. Height : 802 pixels
  16. Display aspect ratio : 2.40:1
  17. Original display aspect ratio : 2.40:1
  18. Frame rate mode : Constant
  19. Frame rate : 23.976 (24000/1001) FPS
  20. Color space : YUV
  21. Chroma subsampling : 4:2:0
  22. Bit depth : 8 bits
  23. Scan type : Progressive
  24. Bits/(Pixel*Frame) : 0.122
  25. Stream size : 4.50 GiB (83%)
  26. Title : ~Ranvijay~

  27. Audio #1
  28. ID : 2
  29. Format : AC-3
  30. Bit rate mode : Constant
  31. Bit rate : 448 kb/s
  32. Channel(s) : 6 channels
  33. Channel positions : Front: L C R, Side: L R, LFE
  34. Title : ~Ranvijay~
  35. Language : Hindi

  36. Audio #2
  37. ID : 3
  38. Format : AC-3
  39. Bit rate mode : Constant
  40. Bit rate : 448 kb/s
  41. Channel(s) : 6 channels
  42. Channel positions : Front: L C R, Side: L R, LFE
  43. Title : ~Ranvijay~
  44. Language : English

  45. Text #1
  46. ID : 4
  47. Format : PGS
  48. Title : ~Ranvijay~
  49. Language : English

  50. Text #2
  51. ID : 5
  52. Format : PGS
  53. Title : ~Ranvijay~
  54. Language : Hindi
复制代码

















007:幽灵党
导演: 萨姆·门德斯
编剧: 伊恩·弗莱明 / 约翰·洛根
主演: 丹尼尔·克雷格 / 克里斯托弗·沃尔兹 / 拉尔夫·费因斯 / 娜奥米·哈里斯 / 莫妮卡·贝鲁奇 / 更多...
类型: 动作 / 悬疑 / 惊悚 / 冒险
制片国家/地区: 美国 / 英国
语言: 英语
上映日期: 2015-10-26(英国) / 2015-11-06(美国)
又名: 007:恶魔四伏(台) / 邦德24 [8]
剧情简介
第24部007系列电影在英国松林制片厂举行开机启动仪式,导演萨姆·门德斯与制作人芭芭拉·布洛柯里等为全球观众现场揭幕新一集007电影的片名及演员阵容。影片正式定名《幽灵党》。丹尼尔·克雷格确定回归,第四次饰演詹姆斯·邦德。
《幽灵党》中,因为一条来自过去的加密信息,邦德逐步揭开了一个邪恶组织的神秘面纱。为了保全安全机构,M与政治势力展开一番惊险争斗,同时,随着邦德一层层拨开谎言迷雾,隐藏在“魔鬼党”背后的骇人真相也终于浮出水面。
除已确定回归的“邦德”丹尼尔·克雷格,万众瞩目的“邦女郎”一位由风情万种的意大利女星莫妮卡·贝鲁奇担任,这位因《西西里的美丽传说》《黑客帝国》艳惊世界的尤物,这一次加盟《spectre》给足世人惊喜。另一位“邦女郎”则由法国女星蕾雅·赛杜饰演,慵懒性感的她曾因出演《无耻混蛋》《午夜巴黎》《碟中谍4》声名大噪。 [9]
《007:幽灵党》是哥伦比亚影片公司发行的影片。由萨姆·门德斯执导,丹尼尔·克雷格、克里斯托弗·沃尔兹、拉尔夫·费因斯、莫妮卡·贝鲁奇、娜奥米·哈里斯、戴夫·巴蒂斯塔等主演。 影片讲述了因为一条来自过去的加密信息,邦德逐步揭开了一个邪恶组织的神秘面纱。为了保全安全机构的正常运转,M与政治势力展开一番争斗,与此同时,随着邦德拨开一层层的谎言,隐藏在“幽灵党”(SPECTRE)背后的恐怖真相终于浮出水面。
  1. Spectre (2015) 1080p BluRay x264 Dual Audio [Hindi DD5.1 - English DD5.1] - Msubs ~ Ranvijay

  2. General
  3. Format : Matroska
  4. Format version : Version 4 / Version 2
  5. File size : 5.60 GiB
  6. Duration : 2 h 28 min
  7. Overall bit rate : 5 410 kb/s
  8. Movie name : Spectre (2015) 1080p BluRay x264 Dual Audio [Hindi DD5.1 - English DD5.1] - Msubs ~ Ranvijay

  9. Video
  10. ID : 1
  11. Format : AVC
  12. Format/Info : Advanced Video Codec
  13. Duration : 2 h 28 min
  14. Bit rate : 4 500 kb/s
  15. Width : 1 920 pixels
  16. Height : 806 pixels
  17. Display aspect ratio : 2.40:1
  18. Frame rate mode : Constant
  19. Frame rate : 23.976 (24000/1001) FPS
  20. Color space : YUV
  21. Chroma subsampling : 4:2:0
  22. Bit depth : 8 bits
  23. Scan type : Progressive
  24. Bits/(Pixel*Frame) : 0.121
  25. Stream size : 4.66 GiB (83%)
  26. Title : ~Ranvijay~

  27. Audio #1
  28. ID : 2
  29. Format : AC-3
  30. Bit rate mode : Constant
  31. Bit rate : 448 kb/s
  32. Channel(s) : 6 channels
  33. Channel positions : Front: L C R, Side: L R, LFE
  34. Title : ~Ranvijay~
  35. Language : Hindi

  36. Audio #2
  37. ID : 3
  38. Format : AC-3
  39. Bit rate mode : Constant
  40. Bit rate : 448 kb/s
  41. Channel(s) : 6 channels
  42. Channel positions : Front: L C R, Side: L R, LFE
  43. Title : ~Ranvijay~
  44. Language : English

  45. Text #1
  46. ID : 4
  47. Format : PGS
  48. Title : ~Ranvijay~
  49. Language : English

  50. Text #2
  51. ID : 5
  52. Format : PGS
  53. Title : ~Ranvijay~
  54. Language : Hindi
复制代码












游客,如果您要查看本帖隐藏内容请回复,您还可以免扣高清币免回复下载:https://www.85lou.com/plugin.php?id=wyfaka_url:url





回复

使用道具 举报

人气偶像

高清币
2
金钱
1549
鲜花
0
在线时间
436 小时
最后登录
2019-8-18
发表于 2018-9-2 11:58:28 | 显示全部楼层
楼主分享的高清电影太好了!
回复 支持 反对

使用道具 举报

superstar

高清币
856
金钱
10964
鲜花
0
在线时间
1048 小时
最后登录
2019-8-18
发表于 2018-9-2 12:01:11 | 显示全部楼层
感谢楼主分享精彩电影!
回复 支持 反对

使用道具 举报

天王巨星

高清币
2
金钱
1825
鲜花
0
在线时间
175 小时
最后登录
2019-8-17
发表于 2018-9-2 12:01:47 | 显示全部楼层
感谢分享,怀念思路
回复 支持 反对

使用道具 举报

人气偶像

高清币
110
金钱
1350
鲜花
0
在线时间
369 小时
最后登录
2019-8-17
发表于 2018-9-2 12:04:34 | 显示全部楼层
中国高清论坛很棒!
回复 支持 反对

使用道具 举报

永恒神话

高清币
17004
金钱
21469
鲜花
0
在线时间
1193 小时
最后登录
2019-3-3
发表于 2018-9-2 12:05:16 | 显示全部楼层
每天都来中国高清论坛看看有什么电影!
回复 支持 反对

使用道具 举报

天王巨星

高清币
168
金钱
2398
鲜花
0
在线时间
520 小时
最后登录
2019-8-17
发表于 2018-9-2 12:09:52 | 显示全部楼层
6666666666666666666666666
回复 支持 反对

使用道具 举报

人气偶像

高清币
4
金钱
1135
鲜花
0
在线时间
221 小时
最后登录
2019-8-12
发表于 2018-9-2 12:10:27 | 显示全部楼层
每天都来中国高清论坛看看有什么电影!
回复 支持 反对

使用道具 举报

金鸡奖主角

高清币
1832
金钱
2895
鲜花
0
在线时间
328 小时
最后登录
2019-6-29
发表于 2018-9-2 12:12:26 | 显示全部楼层
感谢楼主分享精彩电影!
回复 支持 反对

使用道具 举报

天王巨星

高清币
6
金钱
3005
鲜花
0
在线时间
514 小时
最后登录
2019-2-26
发表于 2018-9-2 12:17:37 | 显示全部楼层
感谢楼主分享精彩电影!
回复 支持 反对

使用道具 举报

懒得打字嘛,点击右侧快捷回复 【右侧内容,后台自定义】
您需要登录后才可以回帖 登录 | 立即注册

本版积分规则

QQ|手机版|小黑屋|中国高清论坛 ( 黔ICP备16007815号-1 )

GMT+8, 2019-8-19 09:12 , Processed in 0.146995 second(s), 26 queries .

Powered by Discuz! X3.4

© 2001-2017 Comsenz Inc.

快速回复 返回顶部 返回列表