请选择 进入手机版 | 继续访问电脑版

中国高清论坛

 找回密码
 立即注册
搜索
查看: 5990|回复: 350

[爱情片] 姐妹的诱惑.Erotic Twin Killers – The Seduction of the Sisters.2016.KR.WEB-DL.1280x720

  [复制链接]

高清发布组

高清币
122791
金钱
6601
鲜花
0
在线时间
1414 小时
最后登录
2019-4-22
发表于 2018-9-14 12:57:02 | 显示全部楼层 |阅读模式
姐妹的诱惑.Erotic Twin Killers – The Seduction of the Sisters.2016.KR.WEB-DL.12.jpg
※※※※※※※ 影片信息 ※※※※※※※

◎片   名 姐妹的诱惑
◎译   名 Erotic Twin Killers – The Seduction of the Sisters
◎年   代 2016
◎国   家 韩国
◎类   别 剧情 / 爱情 / 情色
◎语   言 韩语
◎上映日 期 2016-11-04(韩国)
◎字   幕 简体字幕/繁体字幕
◎豆瓣 评分  4.4/10 from 108 users
◎视频尺 寸  1920x1080p
◎片   长 1.14.54
◎主   演 Yoon Bo Ri




◎简  介



  缠在一起的缘分的面对和结束。
  泰京的初恋套彬富人石在大学约定结婚,
  真正的他和秘书有着深厚的关系…”
  突然有一天,受到挫折的泰京与秘书一起恩秀!
  但是恩秀金熙洙杀死朴泰景的样子和非常相似,但…




※※※※※※※ 参数信息 ※※※※※※※


General
Unique ID                      : 229259106825428761190700665071504247663 (0xAC79B2A8A5C22BAEBA6136B1EF60CB6F)

Format                         : Matroska
Format version                 : Version 4 / Version 2
File size                      : 1.67 GiB
Duration                       : 1 h 14 min
Overall bit rate               : 3 189 kb/s
Movie name                     : KOOK
Encoded date                   : UTC 2018-08-19 05:26:11
Writing application            : mkvmerge v9.4.2 ('So High') 64bit
Writing library                : libebml v1.3.4 + libmatroska v1.4.5
Attachments                    : 正式海报.jpg / fzlbfw.ttf / fzlbjw.ttf

Video
ID                             : 1
Format                         : AVC
Format/Info                    : Advanced Video Codec
Format profile                 : Baseline@L3
Format settings, CABAC         : No
Format settings, ReFrames      : 1 frame
Format settings, GOP           : M=1, N=30
Codec ID                       : V_MPEG4/ISO/AVC
Duration                       : 1 h 14 min
Bit rate                       : 3 000 kb/s
Width                          : 1 280 pixels
Height                         : 720 pixels
Display aspect ratio           : 16:9
Frame rate mode                : Constant
Frame rate                     : 29.970 (29970/1000) FPS
Color space                    : YUV
Chroma subsampling             : 4:2:0
Bit depth                      : 8 bits
Scan type                      : Progressive
Bits/(Pixel*Frame)             : 0.109
Stream size                    : 1.57 GiB (94%)
Writing library                : x264 core 125 r2200 999b753
Encoding settings              : cabac=0 / ref=1 / deblock=1:0:0 / analyse=0x1:0x131 / me=dia / subme=3 / psy=1 / psy_rd=1.00:0.00 / mixed_ref=0 / me_range=16 / chroma_me=1 / trellis=1 / 8x8dct=0 / cqm=0 / deadzone=21,11 / fast_pskip=1 / chroma_qp_offset=0 / threads=6 / lookahead_threads=1 / sliced_threads=0 / nr=0 / decimate=1 / interlaced=0 / bluray_compat=0 / constrained_intra=0 / bframes=0 / weightp=0 / keyint=30 / keyint_min=16 / scenecut=40 / intra_refresh=0 / rc_lookahead=30 / rc=abr / mbtree=1 / bitrate=3000 / ratetol=1.0 / qcomp=0.60 / qpmin=1 / qpmax=51 / qpstep=4 / ip_ratio=1.40 / aq=1:1.00
Language                       : English
Default                        : Yes
Forced                         : No

Audio
ID                             : 2
Format                         : AAC
Format/Info                    : Advanced Audio Codec
Format profile                 : LC
Codec ID                       : A_AAC
Duration                       : 1 h 14 min
Bit rate                       : 169 kb/s
Channel(s)                     : 2 channels
Channel positions              : Front: L R
Sampling rate                  : 44.1 kHz
Frame rate                     : 43.066 FPS (1024 spf)
Compression mode               : Lossy
Stream size                    : 90.6 MiB (5%)
Language                       : English
Default                        : Yes
Forced                         : No

Text #1
ID                             : 3
Format                         : ASS
Codec ID                       : S_TEXT/ASS
Codec ID/Info                  : Advanced Sub Station Alpha
Duration                       : 1 h 14 min
Bit rate                       : 20 b/s
Count of elements              : 189
Compression mode               : Lossless
Stream size                    : 11.2 KiB (0%)
Title                          : 简体字幕
Language                       : Chinese
Default                        : Yes
Forced                         : No

Text #2
ID                             : 4
Format                         : ASS
Codec ID                       : S_TEXT/ASS
Codec ID/Info                  : Advanced Sub Station Alpha
Duration                       : 1 h 14 min
Bit rate                       : 20 b/s
Count of elements              : 189
Compression mode               : Lossless
Stream size                    : 11.2 KiB (0%)
Title                          : 繁体字幕
Language                       : Chinese
Default                        : No
Forced                         : No



游客,如果您要查看本帖隐藏内容请回复




回复

使用道具 举报

超级明星

高清币
1945
金钱
4697
鲜花
0
在线时间
650 小时
最后登录
2019-4-22
发表于 2018-9-14 12:59:53 | 显示全部楼层
每天都来中国高清论坛看看有什么电影!
回复 支持 反对

使用道具 举报

天王巨星

高清币
11
金钱
2672
鲜花
0
在线时间
678 小时
最后登录
2019-4-19
发表于 2018-9-14 13:09:54 | 显示全部楼层
谢谢楼主分享
回复 支持 反对

使用道具 举报

人气偶像

高清币
42
金钱
1384
鲜花
0
在线时间
68 小时
最后登录
2019-2-12
发表于 2018-9-14 13:09:56 | 显示全部楼层
每天都来中国高清论坛看看有什么电影!
回复 支持 反对

使用道具 举报

金鸡奖主角

高清币
579
金钱
4250
鲜花
0
在线时间
1171 小时
最后登录
2019-4-22
发表于 2018-9-14 13:11:53 | 显示全部楼层
每天都来中国高清论坛看看有什么电影!
回复 支持 反对

使用道具 举报

知名艺人

高清币
77
金钱
326
鲜花
0
在线时间
35 小时
最后登录
2019-2-21
发表于 2018-9-14 13:20:41 | 显示全部楼层
楼主,大恩不言谢了!
回复 支持 反对

使用道具 举报

永恒神话

高清币
17028
金钱
21493
鲜花
0
在线时间
1193 小时
最后登录
2019-3-3
发表于 2018-9-14 13:34:30 | 显示全部楼层
每天都来中国高清论坛看看有什么电影!
回复 支持 反对

使用道具 举报

superstar

高清币
4824
金钱
6502
鲜花
0
在线时间
590 小时
最后登录
2019-4-22
发表于 2018-9-14 13:50:06 | 显示全部楼层
既然你诚信诚意的推荐了,那我就勉为其难的看看吧!
回复 支持 反对

使用道具 举报

superstar

高清币
4130
金钱
8750
鲜花
0
在线时间
526 小时
最后登录
2019-4-22
发表于 2018-9-14 13:53:40 | 显示全部楼层
感谢分享!!
回复 支持 反对

使用道具 举报

超级明星

高清币
1406
金钱
5732
鲜花
0
在线时间
906 小时
最后登录
2019-4-21
发表于 2018-9-14 13:57:37 | 显示全部楼层
感谢楼主分享精彩电影!
回复 支持 反对

使用道具 举报

懒得打字嘛,点击右侧快捷回复 【右侧内容,后台自定义】
您需要登录后才可以回帖 登录 | 立即注册

本版积分规则

QQ|手机版|小黑屋|中国高清论坛 ( 黔ICP备16007815号-1 )

GMT+8, 2019-4-23 00:42 , Processed in 0.072427 second(s), 30 queries .

Powered by Discuz! X3.4

© 2001-2017 Comsenz Inc.

快速回复 返回顶部 返回列表