请选择 进入手机版 | 继续访问电脑版

中国高清论坛

 找回密码
 立即注册
搜索
查看: 432|回复: 66

[传记片] 登月第一人/登月先锋(台) First.Man.2018.MULTi.1080p.BluRay.x264-LOST 9.83 GiB

  [复制链接]

超级版主

高清币
16118
金钱
37517
鲜花
0
在线时间
11697 小时
最后登录
2019-6-26
发表于 2019-1-12 22:16:01 | 显示全部楼层 |阅读模式



◎译  名 登月第一人/第一人/登月先锋(台)
◎片  名 First Man
◎年  代 2018
◎国  家 美国
◎类  别 传记/剧情/历史
◎语  言 英语...
◎IMDb评分 7.7/10 from 48626 users
◎IMDB链接 http://www.imdb.com/title/tt1213641
◎片  长 2 h 20 min
◎导  演 达米恩·查泽雷 Damien Chazelle
◎主  演 瑞恩·高斯林 Ryan Gosling
      克莱尔·芙伊 Claire Foy
      杰森·克拉克 Jason Clarke
      凯尔·钱德勒 Kyle Chandler
      寇瑞·斯托尔 Corey Stoll
      派屈克·福吉特 Patrick Fugit
      克里斯托弗·阿波特 Christopher Abbott
      塞伦·希德 Ciarán Hinds
      奥莉维亚·汉密尔顿 Olivia Hamilton
      巴勃罗·施瑞博尔 Pablo Schreiber
      谢伊·惠格姆 Shea Whigham
      卢卡斯·哈斯 Lukas Haas
      伊桑·恩布里 Ethan Embry
      布莱恩·达西·詹姆斯 Brian d'Arcy James
      科里·迈克尔·史密斯 Cory Michael Smith
      克里斯·斯万博格 Kris Swanberg
      J·D·埃弗摩尔 J.D. Evermore
      斯蒂芬·考特尔 Steve Coulter
      威廉·格雷戈里·李 William Gregory Lee
      布莱德利·史密斯 Brady Smith


◎简  介

  故事聚焦人类历史上首位登上月球的宇航员——尼尔·阿姆斯特朗的生平。 尼尔·奥尔登·阿姆斯特朗(Neil Alden Armstrong,1930年8月5日-2012年8月25日),是美国阿波罗11号登月计划宇航员。在美国航空航天局服役时,阿姆斯特朗于1969年7月21日成为了第一个踏上月球的宇航员,也是第一个在地球外星体上留下脚印的人类成员。

花絮

.尼尔·阿姆斯特朗2012年去世,他妻子珍妮特2018年6月也过世,很可惜俩人都没能看到这部影片。

.《登月第一人》拍摄用了58天,成名作《爆裂鼓手》仅用了19天。

.为赶威尼斯电影节开幕,导演达米恩·查泽雷没时间回家,在剪辑房旁酒店租了个房间赶工。

.影片投资7000万美元,比查泽雷之前三部长片《公园长凳上的盖伊和玛德琳》《爆裂鼓手》《爱乐之城》加起来还多。

.查泽雷一开始找瑞恩·高斯林是要演《登月第一人》,听说导演有个音乐剧电影剧本,高斯林提出想加盟,促成俩人先合作了《爱乐之城》。

获奖记录

威尼斯电影节(2018;第75届)
提名
·金狮奖达米恩·查泽雷 Damien Chazelle  

  1. General
  2. Complete name                  : E:\迅雷下载\[ www.Torrent9.uno ] First.Man.2018.MULTi.1080p.BluRay.x264-LOST\First.Man.2018.MULTi.1080p.BluRay.x264-LOST.mkv
  3. Format                         : Matroska
  4. Format version                 : Version 2
  5. File size                      : 9.83 GiB
  6. Duration                       : 2 h 20 min
  7. Overall bit rate               : 9 982 kb/s
  8. Writing application            : mkvmerge v6.6.0 ('The Edge Of The In Between') built on Dec 1 2013 17:55:00
  9. Writing library                : libebml v1.3.0 + libmatroska v1.4.1
  10. FileExtension_Invalid          : mkv mk3d mka mks

  11. Video
  12. ID                             : 1
  13. Format                         : AVC
  14. Format/Info                    : Advanced Video Codec
  15. Format profile                 : High@L4.1
  16. Format settings                : CABAC / 5 Ref Frames
  17. Format settings, CABAC         : Yes
  18. Format settings, ReFrames      : 5 frames
  19. Codec ID                       : V_MPEG4/ISO/AVC
  20. Duration                       : 2 h 20 min
  21. Bit rate                       : 8 898 kb/s
  22. Width                          : 1 920 pixels
  23. Height                         : 808 pixels
  24. Display aspect ratio           : 2.40:1
  25. Frame rate mode                : Constant
  26. Frame rate                     : 23.976 (24000/1001) FPS
  27. Color space                    : YUV
  28. Chroma subsampling             : 4:2:0
  29. Bit depth                      : 8 bits
  30. Scan type                      : Progressive
  31. Bits/(Pixel*Frame)             : 0.239
  32. Stream size                    : 8.56 GiB (87%)
  33. Writing library                : x264 core 157 r2935 545de2f
  34. Encoding settings              : cabac=1 / ref=5 / deblock=1:0:0 / analyse=0x3:0x113 / me=umh / subme=8 / psy=1 / psy_rd=1.00:0.00 / mixed_ref=1 / me_range=16 / chroma_me=1 / trellis=1 / 8x8dct=1 / cqm=0 / deadzone=21,11 / fast_pskip=1 / chroma_qp_offset=-2 / threads=18 / lookahead_threads=3 / sliced_threads=0 / nr=0 / decimate=1 / interlaced=0 / bluray_compat=0 / constrained_intra=0 / bframes=3 / b_pyramid=2 / b_adapt=2 / b_bias=0 / direct=3 / weightb=1 / open_gop=0 / weightp=2 / keyint=240 / keyint_min=24 / scenecut=40 / intra_refresh=0 / rc_lookahead=50 / rc=2pass / mbtree=1 / bitrate=8898 / ratetol=1.0 / qcomp=0.60 / qpmin=0 / qpmax=69 / qpstep=4 / cplxblur=20.0 / qblur=0.5 / ip_ratio=1.40 / aq=1:1.00
  35. Language                       : English
  36. Default                        : Yes
  37. Forced                         : No

  38. Audio #1
  39. ID                             : 2
  40. Format                         : AC-3
  41. Format/Info                    : Audio Coding 3
  42. Commercial name                : Dolby Digital
  43. Codec ID                       : A_AC3
  44. Duration                       : 2 h 20 min
  45. Bit rate mode                  : Constant
  46. Bit rate                       : 448 kb/s
  47. Channel(s)                     : 6 channels
  48. Channel layout                 : L R C LFE Ls Rs
  49. Sampling rate                  : 48.0 kHz
  50. Frame rate                     : 31.250 FPS (1536 SPF)
  51. Bit depth                      : 16 bits
  52. Compression mode               : Lossy
  53. Stream size                    : 452 MiB (4%)
  54. Title                          : French AC3 448kbps
  55. Language                       : French
  56. Service kind                   : Complete Main
  57. Default                        : Yes
  58. Forced                         : No

  59. Audio #2
  60. ID                             : 3
  61. Format                         : AC-3
  62. Format/Info                    : Audio Coding 3
  63. Commercial name                : Dolby Digital
  64. Codec ID                       : A_AC3
  65. Duration                       : 2 h 20 min
  66. Bit rate mode                  : Constant
  67. Bit rate                       : 640 kb/s
  68. Channel(s)                     : 6 channels
  69. Channel layout                 : L R C LFE Ls Rs
  70. Sampling rate                  : 48.0 kHz
  71. Frame rate                     : 31.250 FPS (1536 SPF)
  72. Bit depth                      : 16 bits
  73. Compression mode               : Lossy
  74. Stream size                    : 645 MiB (6%)
  75. Title                          : English AC3 640kbps
  76. Language                       : English
  77. Service kind                   : Complete Main
  78. Default                        : Yes
  79. Forced                         : No

  80. Text #1
  81. ID                             : 4
  82. Format                         : UTF-8
  83. Codec ID                       : S_TEXT/UTF8
  84. Codec ID/Info                  : UTF-8 Plain Text
  85. Title                          : Forced
  86. Language                       : French
  87. Default                        : Yes
  88. Forced                         : Yes

  89. Text #2
  90. ID                             : 5
  91. Format                         : UTF-8
  92. Codec ID                       : S_TEXT/UTF8
  93. Codec ID/Info                  : UTF-8 Plain Text
  94. Title                          : French
  95. Language                       : French
  96. Default                        : No
  97. Forced                         : No

  98. Menu
  99. 00:00:00.000                   : en:00:00:00.000
  100. 00:07:20.440                   : en:00:07:20.440
  101. 00:13:35.982                   : en:00:13:35.982
  102. 00:19:53.192                   : en:00:19:53.192
  103. 00:25:59.725                   : en:00:25:59.725
  104. 00:31:30.138                   : en:00:31:30.138
  105. 00:40:17.248                   : en:00:40:17.248
  106. 00:49:57.703                   : en:00:49:57.703
  107. 01:00:03.016                   : en:01:00:03.016
  108. 01:05:42.397                   : en:01:05:42.397
  109. 01:11:05.720                   : en:01:11:05.720
  110. 01:15:12.967                   : en:01:15:12.967
  111. 01:21:32.888                   : en:01:21:32.888
  112. 01:30:35.305                   : en:01:30:35.305
  113. 01:39:00.726                   : en:01:39:00.726
  114. 01:48:58.490                   : en:01:48:58.490
  115. 01:54:44.419                   : en:01:54:44.419
  116. 02:00:14.916                   : en:02:00:14.916
  117. 02:09:55.705                   : en:02:09:55.705
  118. 02:14:02.743                   : en:02:14:02.743

复制代码

游客,如果您要查看本帖隐藏内容请回复,您还可以免扣高清币免回复下载:https://www.85lou.com/plugin.php?id=wyfaka_url:url


回复

使用道具 举报

永恒神话

高清币
10612
金钱
34285
鲜花
10
在线时间
2282 小时
最后登录
2019-6-26
发表于 2019-1-12 22:17:28 | 显示全部楼层
感谢分享精彩好电影!!!
回复 支持 反对

使用道具 举报

知名艺人

高清币
51
金钱
164
鲜花
0
在线时间
25 小时
最后登录
2019-5-3
发表于 2019-1-12 22:18:28 | 显示全部楼层

这个帖子不回对不起自己!我想我是一天也不能离开中国高清论坛
回复 支持 反对

使用道具 举报

天王巨星

高清币
24
金钱
2512
鲜花
0
在线时间
284 小时
最后登录
2019-6-23
发表于 2019-1-12 22:23:34 | 显示全部楼层
感谢楼主分享。
回复 支持 反对

使用道具 举报

影坛巨星

高清币
109
金钱
9697
鲜花
0
在线时间
1201 小时
最后登录
2019-6-26
发表于 2019-1-12 22:28:54 | 显示全部楼层
楼主发贴辛苦了,谢谢楼主分享!我觉得中国高清论坛是注册对了!
回复 支持 反对

使用道具 举报

知名艺人

高清币
3
金钱
183
鲜花
0
在线时间
41 小时
最后登录
2019-6-11
发表于 2019-1-12 22:29:59 | 显示全部楼层
既然你诚信诚意的推荐了,那我就勉为其难的看看吧
回复 支持 反对

使用道具 举报

人气偶像

高清币
8
金钱
1567
鲜花
0
在线时间
641 小时
最后登录
2019-6-26
发表于 2019-1-12 22:33:26 | 显示全部楼层
感谢分享精彩好电影!!!
回复 支持 反对

使用道具 举报

永恒神话

高清币
38200
金钱
75810
鲜花
0
在线时间
6507 小时
最后登录
2019-6-26
发表于 2019-1-12 22:34:07 | 显示全部楼层

楼主太厉害了!楼主,电影应该很好看我觉得中国高清论坛真是个好地方!
回复 支持 反对

使用道具 举报

超级明星

高清币
3134
金钱
4332
鲜花
0
在线时间
626 小时
最后登录
2019-6-25
发表于 2019-1-12 22:36:45 | 显示全部楼层

我看不错噢 谢谢楼主!中国高清论坛越来越好!
回复 支持 反对

使用道具 举报

金鸡奖主角

高清币
1040
金钱
2111
鲜花
0
在线时间
238 小时
最后登录
2019-6-24
发表于 2019-1-12 22:36:46 | 显示全部楼层
楼主发贴辛苦了,谢谢楼主分享!我觉得中国高清论坛是注册对了!
回复 支持 反对

使用道具 举报

懒得打字嘛,点击右侧快捷回复 【右侧内容,后台自定义】
您需要登录后才可以回帖 登录 | 立即注册

本版积分规则

QQ|手机版|小黑屋|中国高清论坛 ( 黔ICP备16007815号-1 )

GMT+8, 2019-6-26 19:43 , Processed in 0.053849 second(s), 29 queries .

Powered by Discuz! X3.4

© 2001-2017 Comsenz Inc.

快速回复 返回顶部 返回列表