请选择 进入手机版 | 继续访问电脑版

中国高清论坛

 找回密码
 立即注册
搜索
查看: 604|回复: 104

[动作片] 所有邪佞之人 All.The.Devils.Men.2018.1080p.BluRay.x264.DTS-HD.MA.5.1-FGT

  [复制链接]

超级版主

高清币
16118
金钱
37517
鲜花
0
在线时间
11697 小时
最后登录
2019-6-26
发表于 2019-1-12 22:22:50 | 显示全部楼层 |阅读模式



◎译  名 所有邪佞之人/恶魔突击队
◎片  名 All the Devil's Men
◎年  代 2018
◎国  家 英国
◎类  别 动作
◎IMDb评分 5.2/10 from 263 users
◎IMDB链接 https://www.imdb.com/title/tt6012244/
◎片  长 1 h 39 min
◎导  演 Matthew Hope
◎主  演 威廉·菲德内尔 William Fichtner
      米洛·吉布森 Milo Gibson
      西尔维娅·侯克斯 Sylvia Hoeks
      艾略特·科万 Elliot Cowan
      格本加·阿金纳格贝 Gbenga Akinnagbe
      约瑟夫·米尔森 Joseph Millson
      雅沃尔·巴哈罗夫 Yavor Baharov
      明格斯·约翰斯顿 Mingus Johnston
      里纳特·希什马塔林 Rinat Khismatouline
      Ben Loyd-Holmes
      Saif Al-Warith
      Perry Fitzpatrick
      Steven Bartle
      Martin Mednikarov
      Ray Bullock Jnr

◎简  介

 世界即将沦为战场…杰克柯林斯(米洛吉勃逊饰)是一位前海军海豹突击队队员,目前是协助中央情报局追捕恐怖分子的赏金猎人。然而他长期靠药物对抗心魔的情况,让他成为组织的眼中钉。
中情局的接头人莉决定给他最后一次机会,派他到伦敦街头出三人小组任务。目标名叫麦奈特(艾略特考万饰),是叛变的中情局前特务,向俄国黑帮购买大规模毁灭性武器后就人间蒸发。三人开始行动后,却发现他们陷入一场权谋之争,对手是他们的前同事戴顿和他的私人军队,受僱于麦奈特担任其保全。双方在街头爆发了枪战衝突,窒碍难行的紧张攻防战,这场恶魔般危机四伏的任务行动,究竟谁才能获得最后胜利?

  1. Video
  2. ID : 1
  3. Format : AVC
  4. Format/Info : Advanced Video Codec
  5. Format profile : High@L4.1
  6. Format settings : CABAC / 4 Ref Frames
  7. Format settings, CABAC : Yes
  8. Format settings, ReFrames : 4 frames
  9. Codec ID : V_MPEG4/ISO/AVC
  10. Duration : 1 h 39 min
  11. Bit rate : 11.5 Mb/s
  12. Width : 1 920 pixels
  13. Height : 804 pixels
  14. Display aspect ratio : 2.40:1
  15. Frame rate mode : Constant
  16. Frame rate : 24.000 FPS
  17. Color space : YUV
  18. Chroma subsampling : 4:2:0
  19. Bit depth : 8 bits
  20. Scan type : Progressive
  21. Bits/(Pixel*Frame) : 0.310
  22. Stream size : 8.00 GiB (77%)
  23. Title : All.The.Devils.Men.2018.1080p.BluRay.x264.DTS-HD.MA.5.1-FGT
  24. Writing library : x264 core 148 r2795M aaa9aa8
  25. Encoding settings : cabac=1 / ref=4 / deblock=1:-2:-2 / analyse=0x3:0x113 / me=umh / subme=9 / psy=1 / psy_rd=1.00:0.15 / mixed_ref=1 / me_range=16 / chroma_me=1 / trellis=2 / 8x8dct=1 / cqm=0 / deadzone=21,11 / fast_pskip=1 / chroma_qp_offset=-3 / threads=24 / lookahead_threads=3 / sliced_threads=0 / nr=0 / decimate=1 / interlaced=0 / bluray_compat=0 / constrained_intra=0 / bframes=3 / b_pyramid=2 / b_adapt=1 / b_bias=0 / direct=3 / weightb=1 / open_gop=0 / weightp=2 / keyint=250 / keyint_min=25 / scenecut=40 / intra_refresh=0 / rc_lookahead=50 / rc=2pass / mbtree=1 / bitrate=11500 / ratetol=1.0 / qcomp=0.60 / qpmin=0 / qpmax=69 / qpstep=4 / cplxblur=20.0 / qblur=0.5 / vbv_maxrate=31250 / vbv_bufsize=31250 / nal_hrd=none / filler=0 / ip_ratio=1.40 / aq=1:1.00
  26. Language : English
  27. Default : Yes
  28. Forced : No

  29. Audio
  30. ID : 2
  31. Format : DTS XLL
  32. Format/Info : Digital Theater Systems
  33. Commercial name : DTS-HD Master Audio
  34. Codec ID : A_DTS
  35. Duration : 1 h 39 min
  36. Bit rate mode : Variable
  37. Bit rate : 3 392 kb/s
  38. Channel(s) : 6 channels
  39. Channel layout : C L R Ls Rs LFE
  40. Sampling rate : 48.0 kHz
  41. Frame rate : 93.750 FPS (512 SPF)
  42. Bit depth : 24 bits
  43. Compression mode : Lossless
  44. Stream size : 2.36 GiB (23%)
  45. Title : All.The.Devils.Men.2018.1080p.BluRay.x264.DTS-HD.MA.5.1-FGT
  46. Language : English
  47. Default : Yes
  48. Forced : No

  49. Text #1
  50. ID : 3
  51. Format : UTF-8
  52. Codec ID : S_TEXT/UTF8
  53. Codec ID/Info : UTF-8 Plain Text
  54. Duration : 1 h 12 min
  55. Bit rate : 0 b/s
  56. Count of elements : 19
  57. Stream size : 462 Bytes (0%)
  58. Title : English-FORCED-SRT
  59. Language : English
  60. Default : Yes
  61. Forced : Yes

  62. Text #2
  63. ID : 4
  64. Format : UTF-8
  65. Codec ID : S_TEXT/UTF8
  66. Codec ID/Info : UTF-8 Plain Text
  67. Duration : 1 h 26 min
  68. Bit rate : 40 b/s
  69. Count of elements : 886
  70. Stream size : 25.4 KiB (0%)
  71. Title : English-SRT
  72. Language : English
  73. Default : No
  74. Forced : No

  75. Text #3
  76. ID : 5
  77. Format : UTF-8
  78. Codec ID : S_TEXT/UTF8
  79. Codec ID/Info : UTF-8 Plain Text
  80. Duration : 1 h 31 min
  81. Bit rate : 40 b/s
  82. Count of elements : 960
  83. Stream size : 27.0 KiB (0%)
  84. Title : English-SDH-SRT
  85. Language : English
  86. Default : No
  87. Forced : No

  88. Menu
  89. 00:00:00.000 : en:Chapter 01
  90. 00:01:01.833 : en:Chapter 02
  91. 00:09:57.541 : en:Chapter 03
  92. 00:20:02.875 : en:Chapter 04
  93. 00:25:24.750 : en:Chapter 05
  94. 00:35:17.958 : en:Chapter 06
  95. 00:42:27.291 : en:Chapter 07
  96. 00:51:25.000 : en:Chapter 08
  97. 00:57:41.125 : en:Chapter 09
  98. 01:05:31.458 : en:Chapter 10
  99. 01:17:21.708 : en:Chapter 11
  100. 01:25:25.041 : en:Chapter 12
  101. 01:32:52.833 : en:Chapter 13
复制代码









游客,如果您要查看本帖隐藏内容请回复,您还可以免扣高清币免回复下载:https://www.85lou.com/plugin.php?id=wyfaka_url:url
回复

使用道具 举报

永恒神话

高清币
6801
金钱
25094
鲜花
0
在线时间
4972 小时
最后登录
2019-6-26
发表于 2019-1-12 22:29:03 | 显示全部楼层

感谢楼主的无私分享!要想中国高清论坛好 就靠你我他
回复 支持 反对

使用道具 举报

知名艺人

高清币
63
金钱
313
鲜花
0
在线时间
112 小时
最后登录
2019-6-22
发表于 2019-1-12 22:31:32 | 显示全部楼层
楼主发贴辛苦了,谢谢楼主分享!我觉得中国高清论坛是注册对了!
回复 支持 反对

使用道具 举报

永恒神话

高清币
38200
金钱
75810
鲜花
0
在线时间
6507 小时
最后登录
2019-6-26
发表于 2019-1-12 22:33:17 | 显示全部楼层

楼主太厉害了!楼主,电影应该很好看我觉得中国高清论坛真是个好地方!
回复 支持 反对

使用道具 举报

金鸡奖主角

高清币
1040
金钱
2111
鲜花
0
在线时间
238 小时
最后登录
2019-6-24
发表于 2019-1-12 22:34:11 | 显示全部楼层
楼主发贴辛苦了,谢谢楼主分享!我觉得中国高清论坛是注册对了!
回复 支持 反对

使用道具 举报

金鸡奖主角

高清币
1182
金钱
2455
鲜花
0
在线时间
562 小时
最后登录
2019-6-26
发表于 2019-1-12 22:36:58 | 显示全部楼层

这东西我收了!谢谢楼主!中国高清论坛真好!
回复 支持 反对

使用道具 举报

人气偶像

高清币
47
金钱
1304
鲜花
0
在线时间
430 小时
最后登录
2019-6-20
发表于 2019-1-12 22:43:48 | 显示全部楼层

其实我一直觉得楼主的品味不错!呵呵!中国高清论坛太棒了!
回复 支持 反对

使用道具 举报

影坛巨星

高清币
3708
金钱
5188
鲜花
0
在线时间
1273 小时
最后登录
2019-6-26
发表于 2019-1-12 22:48:03 | 显示全部楼层
楼主发贴辛苦了,谢谢楼主分享!我觉得中国高清论坛是注册对了!
回复 支持 反对

使用道具 举报

永恒神话

高清币
15295
金钱
24291
鲜花
0
在线时间
2352 小时
最后登录
2019-6-26
发表于 2019-1-12 22:48:12 | 显示全部楼层

感谢楼主的无私分享!要想中国高清论坛好 就靠你我他
回复 支持 反对

使用道具 举报

永恒神话

高清币
10117
金钱
15433
鲜花
0
在线时间
969 小时
最后登录
2019-6-26
发表于 2019-1-12 22:54:34 | 显示全部楼层
感谢楼主分享精彩电影!
回复 支持 反对

使用道具 举报

懒得打字嘛,点击右侧快捷回复 【右侧内容,后台自定义】
您需要登录后才可以回帖 登录 | 立即注册

本版积分规则

QQ|手机版|小黑屋|中国高清论坛 ( 黔ICP备16007815号-1 )

GMT+8, 2019-6-26 20:09 , Processed in 0.050911 second(s), 29 queries .

Powered by Discuz! X3.4

© 2001-2017 Comsenz Inc.

快速回复 返回顶部 返回列表