请选择 进入手机版 | 继续访问电脑版

中国高清论坛

 找回密码
 立即注册
搜索
查看: 1110|回复: 197

[动作片] 所有邪佞之人 All.The.Devils.Men.2018.1080p.BluRay.x264.DTS-FGT 9.06 GiB

  [复制链接]

超级版主

高清币
16118
金钱
37517
鲜花
0
在线时间
11697 小时
最后登录
2019-6-26
发表于 2019-1-12 22:25:14 | 显示全部楼层 |阅读模式



◎译  名 所有邪佞之人/恶魔突击队
◎片  名 All the Devil's Men
◎年  代 2018
◎国  家 英国
◎类  别 动作
◎IMDb评分 5.2/10 from 263 users
◎IMDB链接 https://www.imdb.com/title/tt6012244/
◎片  长 1 h 39 min
◎导  演 Matthew Hope
◎主  演 威廉·菲德内尔 William Fichtner
      米洛·吉布森 Milo Gibson
      西尔维娅·侯克斯 Sylvia Hoeks
      艾略特·科万 Elliot Cowan
      格本加·阿金纳格贝 Gbenga Akinnagbe
      约瑟夫·米尔森 Joseph Millson
      雅沃尔·巴哈罗夫 Yavor Baharov
      明格斯·约翰斯顿 Mingus Johnston
      里纳特·希什马塔林 Rinat Khismatouline
      Ben Loyd-Holmes
      Saif Al-Warith
      Perry Fitzpatrick
      Steven Bartle
      Martin Mednikarov
      Ray Bullock Jnr

◎简  介

 世界即将沦为战场…杰克柯林斯(米洛吉勃逊饰)是一位前海军海豹突击队队员,目前是协助中央情报局追捕恐怖分子的赏金猎人。然而他长期靠药物对抗心魔的情况,让他成为组织的眼中钉。
中情局的接头人莉决定给他最后一次机会,派他到伦敦街头出三人小组任务。目标名叫麦奈特(艾略特考万饰),是叛变的中情局前特务,向俄国黑帮购买大规模毁灭性武器后就人间蒸发。三人开始行动后,却发现他们陷入一场权谋之争,对手是他们的前同事戴顿和他的私人军队,受僱于麦奈特担任其保全。双方在街头爆发了枪战衝突,窒碍难行的紧张攻防战,这场恶魔般危机四伏的任务行动,究竟谁才能获得最后胜利?

  1. Video
  2. ID : 1
  3. Format : AVC
  4. Format/Info : Advanced Video Codec
  5. Format profile : High@L4.1
  6. Format settings : CABAC / 4 Ref Frames
  7. Format settings, CABAC : Yes
  8. Format settings, ReFrames : 4 frames
  9. Codec ID : V_MPEG4/ISO/AVC
  10. Duration : 1 h 39 min
  11. Bit rate : 11.5 Mb/s
  12. Width : 1 920 pixels
  13. Height : 804 pixels
  14. Display aspect ratio : 2.40:1
  15. Frame rate mode : Constant
  16. Frame rate : 24.000 FPS
  17. Color space : YUV
  18. Chroma subsampling : 4:2:0
  19. Bit depth : 8 bits
  20. Scan type : Progressive
  21. Bits/(Pixel*Frame) : 0.310
  22. Stream size : 8.00 GiB (88%)
  23. Title : All.The.Devils.Men.2018.1080p.BluRay.x264.DTS-FGT
  24. Writing library : x264 core 148 r2795M aaa9aa8
  25. Encoding settings : cabac=1 / ref=4 / deblock=1:-2:-2 / analyse=0x3:0x113 / me=umh / subme=9 / psy=1 / psy_rd=1.00:0.15 / mixed_ref=1 / me_range=16 / chroma_me=1 / trellis=2 / 8x8dct=1 / cqm=0 / deadzone=21,11 / fast_pskip=1 / chroma_qp_offset=-3 / threads=24 / lookahead_threads=3 / sliced_threads=0 / nr=0 / decimate=1 / interlaced=0 / bluray_compat=0 / constrained_intra=0 / bframes=3 / b_pyramid=2 / b_adapt=1 / b_bias=0 / direct=3 / weightb=1 / open_gop=0 / weightp=2 / keyint=250 / keyint_min=25 / scenecut=40 / intra_refresh=0 / rc_lookahead=50 / rc=2pass / mbtree=1 / bitrate=11500 / ratetol=1.0 / qcomp=0.60 / qpmin=0 / qpmax=69 / qpstep=4 / cplxblur=20.0 / qblur=0.5 / vbv_maxrate=31250 / vbv_bufsize=31250 / nal_hrd=none / filler=0 / ip_ratio=1.40 / aq=1:1.00
  26. Language : English
  27. Default : Yes
  28. Forced : No

  29. Audio
  30. ID : 2
  31. Format : DTS
  32. Format/Info : Digital Theater Systems
  33. Codec ID : A_DTS
  34. Duration : 1 h 39 min
  35. Bit rate mode : Constant
  36. Bit rate : 1 509 kb/s
  37. Channel(s) : 6 channels
  38. Channel layout : C L R Ls Rs LFE
  39. Sampling rate : 48.0 kHz
  40. Frame rate : 93.750 FPS (512 SPF)
  41. Bit depth : 24 bits
  42. Compression mode : Lossy
  43. Stream size : 1.05 GiB (12%)
  44. Title : All.The.Devils.Men.2018.1080p.BluRay.x264.DTS-FGT
  45. Language : English
  46. Default : No
  47. Forced : No

  48. Text #1
  49. ID : 3
  50. Format : UTF-8
  51. Codec ID : S_TEXT/UTF8
  52. Codec ID/Info : UTF-8 Plain Text
  53. Duration : 1 h 12 min
  54. Bit rate : 0 b/s
  55. Count of elements : 19
  56. Stream size : 462 Bytes (0%)
  57. Title : FORCED
  58. Language : English
  59. Default : Yes
  60. Forced : Yes

  61. Text #2
  62. ID : 4
  63. Format : UTF-8
  64. Codec ID : S_TEXT/UTF8
  65. Codec ID/Info : UTF-8 Plain Text
  66. Duration : 1 h 26 min
  67. Bit rate : 40 b/s
  68. Count of elements : 886
  69. Stream size : 25.4 KiB (0%)
  70. Language : English
  71. Default : No
  72. Forced : No

  73. Text #3
  74. ID : 5
  75. Format : UTF-8
  76. Codec ID : S_TEXT/UTF8
  77. Codec ID/Info : UTF-8 Plain Text
  78. Duration : 1 h 31 min
  79. Bit rate : 40 b/s
  80. Count of elements : 960
  81. Stream size : 27.0 KiB (0%)
  82. Title : SDH
  83. Language : English
  84. Default : No
  85. Forced : No

  86. Menu
  87. 00:00:00.000 : en:Chapter 01
  88. 00:01:01.833 : en:Chapter 02
  89. 00:09:57.541 : en:Chapter 03
  90. 00:20:02.875 : en:Chapter 04
  91. 00:25:24.750 : en:Chapter 05
  92. 00:35:17.958 : en:Chapter 06
  93. 00:42:27.291 : en:Chapter 07
  94. 00:51:25.000 : en:Chapter 08
  95. 00:57:41.125 : en:Chapter 09
  96. 01:05:31.458 : en:Chapter 10
  97. 01:17:21.708 : en:Chapter 11
  98. 01:25:25.041 : en:Chapter 12
  99. 01:32:52.833 : en:Chapter 13
复制代码






游客,如果您要查看本帖隐藏内容请回复,您还可以免扣高清币免回复下载:https://www.85lou.com/plugin.php?id=wyfaka_url:url

回复

使用道具 举报

禁止访问

高清币
14
金钱
18
鲜花
0
在线时间
1 小时
最后登录
2019-1-13
发表于 2019-1-13 00:36:48 | 显示全部楼层
提示: 作者被禁止或删除 内容自动屏蔽
回复 支持 1 反对 0

使用道具 举报

人气偶像

高清币
52
金钱
1503
鲜花
0
在线时间
388 小时
最后登录
2019-6-23
发表于 2019-1-13 00:23:20 | 显示全部楼层
我看不错噢 谢谢楼主!中国高清论坛越来越好!
回复 支持 1 反对 0

使用道具 举报

超级明星

高清币
507
金钱
10205
鲜花
0
在线时间
2101 小时
最后登录
2019-6-26
发表于 2019-1-13 00:21:07 | 显示全部楼层

这个帖子不回对不起自己!我想我是一天也不能离开中国高清论坛
回复 支持 1 反对 0

使用道具 举报

好莱坞明星

高清币
14
金钱
6908
鲜花
0
在线时间
1009 小时
最后登录
2019-6-25
发表于 2019-1-12 22:27:53 | 显示全部楼层
楼主发贴辛苦了,谢谢楼主分享!我觉得中国高清论坛是注册对了!
回复 支持 反对

使用道具 举报

永恒神话

高清币
6801
金钱
25094
鲜花
0
在线时间
4972 小时
最后登录
2019-6-26
发表于 2019-1-12 22:29:35 | 显示全部楼层

感谢楼主的无私分享!要想中国高清论坛好 就靠你我他
回复 支持 反对

使用道具 举报

知名艺人

高清币
63
金钱
313
鲜花
0
在线时间
112 小时
最后登录
2019-6-22
发表于 2019-1-12 22:30:03 | 显示全部楼层
楼主发贴辛苦了,谢谢楼主分享!我觉得中国高清论坛是注册对了!
回复 支持 反对

使用道具 举报

知名艺人

高清币
3
金钱
183
鲜花
0
在线时间
41 小时
最后登录
2019-6-11
发表于 2019-1-12 22:30:37 | 显示全部楼层
既然你诚信诚意的推荐了,那我就勉为其难的看看吧
回复 支持 反对

使用道具 举报

金鸡奖主角

高清币
1260
金钱
2897
鲜花
0
在线时间
369 小时
最后登录
2019-6-25
发表于 2019-1-12 22:32:03 | 显示全部楼层
楼主发贴辛苦了,谢谢楼主分享!我觉得中国高清论坛是注册对了!
回复 支持 反对

使用道具 举报

永恒神话

高清币
38200
金钱
75810
鲜花
0
在线时间
6507 小时
最后登录
2019-6-26
发表于 2019-1-12 22:32:56 | 显示全部楼层

这个帖子不回对不起自己!我想我是一天也不能离开中国高清论坛
回复 支持 反对

使用道具 举报

金鸡奖主角

高清币
11
金钱
4329
鲜花
0
在线时间
3664 小时
最后登录
2019-6-25
发表于 2019-1-12 22:33:15 | 显示全部楼层
港台明星情人节吃包子大赛
回复 支持 反对

使用道具 举报

超级明星

高清币
2721
金钱
5901
鲜花
0
在线时间
655 小时
最后登录
2019-6-26
发表于 2019-1-12 22:33:33 | 显示全部楼层
楼主发贴辛苦了,谢谢楼主分享!我觉得中国高清论坛是注册对了!
回复 支持 反对

使用道具 举报

金鸡奖主角

高清币
1040
金钱
2113
鲜花
0
在线时间
238 小时
最后登录
2019-6-26
发表于 2019-1-12 22:33:38 | 显示全部楼层
楼主发贴辛苦了,谢谢楼主分享!我觉得中国高清论坛是注册对了!
回复 支持 反对

使用道具 举报

懒得打字嘛,点击右侧快捷回复 【右侧内容,后台自定义】
您需要登录后才可以回帖 登录 | 立即注册

本版积分规则

QQ|手机版|小黑屋|中国高清论坛 ( 黔ICP备16007815号-1 )

GMT+8, 2019-6-26 20:32 , Processed in 0.069933 second(s), 30 queries .

Powered by Discuz! X3.4

© 2001-2017 Comsenz Inc.

快速回复 返回顶部 返回列表