请选择 进入手机版 | 继续访问电脑版

中国高清论坛

 找回密码
 立即注册
搜索
查看: 121|回复: 15

[惊悚片] 迷离幻境 Braid.2018.1080p.WEB-DL.DD5.1.H264-FGT 2.94GB

[复制链接]

龙行天下

高清币
33077
金钱
7152
鲜花
30
在线时间
1446 小时
最后登录
2019-4-12
发表于 2019-2-1 21:41:24 | 显示全部楼层 |阅读模式

◎译  名 迷离幻境
◎片  名 Braid
◎年  代 2018
◎产  地 美国
◎类  别 悬疑 / 惊悚 / 恐怖
◎语  言 英语
◎上映日期 2018-04-22(美国)
◎IMDb评分 5.7/10 from 134 users
◎片  长 82分钟
◎导  演 Mitzi Peirone
◎编  剧 Mitzi Peirone
◎主  演 Madeline Brewer
      Scott Cohen
      Sarah Hay
      Imogen Waterhouse
      Brad Calcaterra
      Jill Dalton
      Dhoni Middleton
      Tai Lyn Sandhu



◎简  介  

  影片故事情节围绕两位自称为艺术家的Petula Thames以及Tilda Darlings展开,讲述了两人转战纽约追逐梦想,然而却卷入了毒品交易与卖淫活动中。一天晚上,她们不幸丢失了价值8万美元的毒品,损失了毒品的毒枭给她们48小时的时间偿还这笔资金。这两个女孩于是便谋划抢夺她们富有的儿时玩伴Daphne Peters,然而Daphne Peters却已罹患精神分裂症以及旷野恐惧症,囚困于三人儿时创造的幻想世界中,十分危险。为接近Daphne,Tilda与Petula不得不参与到Daphne扭曲且暴力的假装游戏之中。她们三人很快就陷入了幻觉、角色扮演、酷刑和谋杀的致命迷宫之中。

Video
ID : 1
Format : AVC
Format/Info : Advanced Video Codec
Format profile : High@L4
Format settings : CABAC / 5 Ref Frames
Format settings, CABAC : Yes
Format settings, ReFrames : 5 frames
Codec ID : V_MPEG4/ISO/AVC
Duration : 1 h 24 min
Bit rate : 4 567 kb/s
Width : 1 908 pixels
Height : 788 pixels
Display aspect ratio : 2.40:1
Frame rate mode : Constant
Frame rate : 23.976 (24000/1001) FPS
Color space : YUV
Chroma subsampling : 4:2:0
Bit depth : 8 bits
Scan type : Progressive
Bits/(Pixel*Frame) : 0.127
Stream size : 2.71 GiB (92%)
Title : Braid.2018.1080p.WEB-DL.DD5.1.H264-FGT
Language : English
Default : Yes
Forced : No
Color range : Limited
Color primaries : BT.709
Transfer characteristics : BT.709
Matrix coefficients : BT.709

Audio
ID : 2
Format : AC-3
Format/Info : Audio Coding 3
Commercial name : Dolby Digital
Codec ID : A_AC3
Duration : 1 h 24 min
Bit rate mode : Constant
Bit rate : 384 kb/s
Channel(s) : 6 channels
Channel layout : L R C LFE Ls Rs
Sampling rate : 48.0 kHz
Frame rate : 31.250 FPS (1536 SPF)
Bit depth : 16 bits
Compression mode : Lossy
Delay relative to video : -42 ms
Stream size : 233 MiB (8%)
Title : Braid.2018.1080p.WEB-DL.DD5.1.H264-FGT
Language : English
Service kind : Complete Main
Default : Yes
Forced : No

Menu
00:00:00.000 : en:1
00:07:52.000 : en:2
00:18:08.000 : en:3
00:30:15.000 : en:4
00:39:18.000 : en:5
00:47:30.000 : en:6
00:57:40.000 : en:7
01:07:40.000 : en:8
01:16:21.000 : en:9
01:21:13.000 : en:10

游客,如果您要查看本帖隐藏内容请回复

回复

使用道具 举报

超级明星

高清币
1974
金钱
8626
鲜花
0
在线时间
329 小时
最后登录
2019-4-23
发表于 2019-2-1 21:42:33 | 显示全部楼层
楼主发贴辛苦了,谢谢楼主分享!我觉得中国高清论坛是注册对了!
回复 支持 反对

使用道具 举报

好莱坞明星

高清币
1828
金钱
4133
鲜花
0
在线时间
530 小时
最后登录
2019-4-23
发表于 2019-2-1 22:17:04 | 显示全部楼层

我看不错噢 谢谢楼主!中国高清论坛越来越好!
回复 支持 反对

使用道具 举报

天王巨星

高清币
8
金钱
2873
鲜花
0
在线时间
465 小时
最后登录
2019-4-23
发表于 2019-2-1 22:41:00 | 显示全部楼层
66666666666666666666666
回复 支持 反对

使用道具 举报

金鸡奖主角

高清币
145
金钱
4228
鲜花
0
在线时间
948 小时
最后登录
2019-4-22
发表于 2019-2-2 13:21:49 | 显示全部楼层

楼主太厉害了!楼主,电影应该很好看我觉得中国高清论坛真是个好地方!
回复 支持 反对

使用道具 举报

天王巨星

高清币
74
金钱
2712
鲜花
0
在线时间
303 小时
最后登录
2019-4-22
发表于 2019-3-1 20:43:46 | 显示全部楼层

其实我一直觉得楼主的品味不错!呵呵!中国高清论坛太棒了!
回复 支持 反对

使用道具 举报

天王巨星

高清币
189
金钱
2335
鲜花
0
在线时间
277 小时
最后登录
2019-4-23
发表于 2019-3-11 09:25:19 | 显示全部楼层

我看不错噢 谢谢楼主!中国高清论坛越来越好!
回复 支持 反对

使用道具 举报

知名艺人

高清币
2
金钱
249
鲜花
0
在线时间
41 小时
最后登录
2019-4-21
发表于 2019-3-15 19:27:14 | 显示全部楼层
非常谢谢楼主的分享
回复 支持 反对

使用道具 举报

VIP贵宾

高清币
4111
金钱
11835
鲜花
0
在线时间
2973 小时
最后登录
2019-4-22
发表于 2019-3-15 19:28:15 | 显示全部楼层
廣東龍門馬到成功!謝謝樓主的無私發佈分享!
回复 支持 反对

使用道具 举报

知名艺人

高清币
1
金钱
386
鲜花
0
在线时间
34 小时
最后登录
2019-4-23
发表于 2019-3-22 16:22:55 | 显示全部楼层
谢谢楼主分享
回复 支持 反对

使用道具 举报

懒得打字嘛,点击右侧快捷回复 【右侧内容,后台自定义】
您需要登录后才可以回帖 登录 | 立即注册

本版积分规则

QQ|手机版|小黑屋|中国高清论坛 ( 黔ICP备16007815号-1 )

GMT+8, 2019-4-23 11:55 , Processed in 0.048455 second(s), 28 queries .

Powered by Discuz! X3.4

© 2001-2017 Comsenz Inc.

快速回复 返回顶部 返回列表