请选择 进入手机版 | 继续访问电脑版

中国高清论坛

 找回密码
 立即注册
搜索
查看: 243|回复: 66

[动作片] 唇裂 Split.Lip.2019.1080p.AMZN.WEBRip.DDP5.1.x264-CM 3.95GB

[复制链接]

龙行天下

高清币
33077
金钱
7152
鲜花
30
在线时间
1446 小时
最后登录
2019-4-12
发表于 2019-2-1 22:11:49 | 显示全部楼层 |阅读模式
◎译  名 唇裂
◎片  名 Split Lip
◎年  代 2019
◎产  地 美国
◎类  别 动作
◎语  言 英语
◎IMDb评分 N/A
◎片  长 1 h 40 min
◎导  演 Christopher Sheffield
◎主  演 Jax Menez Atwell ... Alexander Marks
      DeJean Brown ... Karlton
      Maryam Cné ... Dana
      Mackenzie Coffman ... Jessica
      Matthew Coleman ... Colt FortyFive
      Drue Schaefer Crookston ... 'Handsome'
      Mike Dolphy ... Richard Voyce



◎简  介  

  In the underground world of contract killers| mistakes cannot be tolerated. Set "Doreé Seay"| a top brutal mercenary with an icy exterior| finds out the hard waywhen one mistake sends her on a treacherous mission to clear her name. Hunted by her former mentor Karlton "DeJean Brown" and his roster of psychopaths| she forms anunlikely alliance with a mysterious stranger and his sister as Set races against the clock to out-wit and out-fight the dark forces gunning for her life.

Video
ID : 1
Format : AVC
Format/Info : Advanced Video Codec
Format profile : High@L4
Format settings : CABAC / 4 Ref Frames
Format settings, CABAC : Yes
Format settings, ReFrames : 4 frames
Codec ID : V_MPEG4/ISO/AVC
Duration : 1 h 40 min
Bit rate : 4 984 kb/s
Width : 1 800 pixels
Height : 1 080 pixels
Display aspect ratio : 5:3
Frame rate mode : Constant
Frame rate : 23.976 (24000/1001) FPS
Color space : YUV
Chroma subsampling : 4:2:0
Bit depth : 8 bits
Scan type : Progressive
Bits/(Pixel*Frame) : 0.107
Stream size : 3.50 GiB (89%)
Default : Yes
Forced : No
Color range : Limited
Color primaries : BT.709
Transfer characteristics : BT.709
Matrix coefficients : BT.709

Audio
ID : 3
Format : E-AC-3
Format/Info : Enhanced AC-3
Commercial name : Dolby Digital Plus
Codec ID : A_EAC3
Duration : 1 h 40 min
Bit rate mode : Constant
Bit rate : 640 kb/s
Channel(s) : 6 channels
Channel layout : L R C LFE Ls Rs
Sampling rate : 48.0 kHz
Frame rate : 31.250 FPS (1536 SPF)
Compression mode : Lossy
Stream size : 461 MiB (11%)
Service kind : Complete Main
Default : Yes
Forced : No

Text
ID : 2
Format : UTF-8
Codec ID : S_TEXT/UTF8
Codec ID/Info : UTF-8 Plain Text
Duration : 1 h 39 min
Bit rate : 35 b/s
Count of elements : 1202
Stream size : 26.1 KiB (0%)
Title : English [SDH]
Language : English
Default : No
Forced : No

游客,如果您要查看本帖隐藏内容请回复

回复

使用道具 举报

好莱坞明星

高清币
1828
金钱
4133
鲜花
0
在线时间
530 小时
最后登录
2019-4-23
发表于 2019-2-1 22:15:26 | 显示全部楼层

我看不错噢 谢谢楼主!中国高清论坛越来越好!
回复 支持 反对

使用道具 举报

人气偶像

高清币
42
金钱
1859
鲜花
0
在线时间
320 小时
最后登录
2019-4-19
发表于 2019-2-1 22:32:15 | 显示全部楼层

其实我一直觉得楼主的品味不错!呵呵!中国高清论坛太棒了!
回复 支持 反对

使用道具 举报

人气偶像

高清币
101
金钱
587
鲜花
0
在线时间
72 小时
最后登录
2019-4-19
发表于 2019-2-1 22:51:54 | 显示全部楼层


我看不错噢 谢谢楼主!中国高清论坛越来越好!
回复 支持 反对

使用道具 举报

人气偶像

高清币
2
金钱
1055
鲜花
0
在线时间
125 小时
最后登录
2019-3-16
发表于 2019-2-1 23:00:09 | 显示全部楼层

楼主太厉害了!楼主,电影应该很好看我觉得中国高清论坛真是个好地方!
回复 支持 反对

使用道具 举报

超级明星

高清币
1974
金钱
8626
鲜花
0
在线时间
329 小时
最后登录
2019-4-23
发表于 2019-2-1 23:01:05 | 显示全部楼层
楼主发贴辛苦了,谢谢楼主分享!我觉得中国高清论坛是注册对了!
回复 支持 反对

使用道具 举报

人气偶像

高清币
2
金钱
1055
鲜花
0
在线时间
125 小时
最后登录
2019-3-16
发表于 2019-2-1 23:03:35 | 显示全部楼层

既然你诚信诚意的推荐了,那我就勉为其难的看看吧!中国高清论坛不走平凡路。
回复 支持 反对

使用道具 举报

超级明星

高清币
353
金钱
9856
鲜花
0
在线时间
2398 小时
最后登录
2019-4-23
发表于 2019-2-1 23:14:55 | 显示全部楼层
感谢楼主分享精彩电影!
回复 支持 反对

使用道具 举报

人气偶像

高清币
42
金钱
1049
鲜花
0
在线时间
92 小时
最后登录
2019-4-20
发表于 2019-2-1 23:16:30 | 显示全部楼层
楼主发贴辛苦了,谢谢楼主分享!我觉得中国高清论坛是注册对了!
回复 支持 反对

使用道具 举报

人气偶像

高清币
42
金钱
1049
鲜花
0
在线时间
92 小时
最后登录
2019-4-20
发表于 2019-2-1 23:16:48 | 显示全部楼层

这个帖子不回对不起自己!我想我是一天也不能离开中国高清论坛
回复 支持 反对

使用道具 举报

懒得打字嘛,点击右侧快捷回复 【右侧内容,后台自定义】
您需要登录后才可以回帖 登录 | 立即注册

本版积分规则

QQ|手机版|小黑屋|中国高清论坛 ( 黔ICP备16007815号-1 )

GMT+8, 2019-4-23 11:55 , Processed in 0.053038 second(s), 28 queries .

Powered by Discuz! X3.4

© 2001-2017 Comsenz Inc.

快速回复 返回顶部 返回列表