请选择 进入手机版 | 继续访问电脑版

中国高清论坛

 找回密码
 立即注册
搜索
查看: 757|回复: 125

[奇幻片] 物怪 Monstrum.2018.720p.BluRay.x264.DTS-FGT 5.17GB

  [复制链接]

龙行天下

高清币
33053
金钱
7152
鲜花
30
在线时间
1446 小时
最后登录
2019-4-12
发表于 2019-2-2 22:16:14 | 显示全部楼层 |阅读模式
◎译  名 物怪 / Monstrum / 恶兽(港) / 水怪 / 灼鼠之变:物怪的袭击 / 작서의 변 : 물괴의 습격
◎片  名 물괴
◎年  代 2018
◎产  地 韩国
◎类  别 动作 / 奇幻
◎语  言 韩语
◎上映日期 2018-09-12(韩国)
◎IMDb评分 5.9/10 from 317 users
◎豆瓣评分 5.3/10 from 1251 users
◎片  长 105分钟
◎导  演 许宗昊 Jong-ho Huh
◎主  演 金明民 Myeong-min Kim
      金仁权 In-kwon Kim
      李惠利 Hyeri Lee
      崔宇植 Woo-Sik Choi
      朴圣雄 Seong-Woong Park
      朴熙顺 Hee soon Park
      李璟荣 Kyeong-yeong Lee
      李度京 Lee Do-kyung
      李圭福 Kyoo-bok Lee
      李受美 Soo-mi Lee
      金重熙 Joong-hee Kim
      韩素英 So-yeong Han
      金刚日  Kang-il Kim
      洪智允 Ji-yoon Hong




◎简  介  

  朝鲜中宗22年,王为了躲避宫中出现的怪物而迁宫。改编自这段史实,讲述了威胁王的「物怪」(诡异的物件)与觊觎王位的循旧势力展开的争斗。

Video
ID : 1
Format : AVC
Format/Info : Advanced Video Codec
Format profile : High@L4.1
Format settings : CABAC / 4 Ref Frames
Format settings, CABAC : Yes
Format settings, ReFrames : 4 frames
Codec ID : V_MPEG4/ISO/AVC
Duration : 1 h 45 min
Bit rate : 5 500 kb/s
Width : 1 280 pixels
Height : 690 pixels
Display aspect ratio : 1.85:1
Original display aspect ratio : 1.85:1
Frame rate mode : Constant
Frame rate : 24.000 FPS
Color space : YUV
Chroma subsampling : 4:2:0
Bit depth : 8 bits
Scan type : Progressive
Bits/(Pixel*Frame) : 0.259
Stream size : 4.05 GiB (78%)
Title : Monstrum.2018.KOREAN.720p.BluRay.x264.DTS-FGT
Writing library : x264 core 148 r2748 97eaef2
Encoding settings : cabac=1 / ref=4 / deblock=1:-2:-2 / analyse=0x3:0x113 / me=umh / subme=9 / psy=1 / psy_rd=1.00:0.15 / mixed_ref=1 / me_range=16 / chroma_me=1 / trellis=2 / 8x8dct=1 / cqm=0 / deadzone=21,11 / fast_pskip=1 / chroma_qp_offset=-3 / threads=24 / lookahead_threads=3 / sliced_threads=0 / nr=0 / decimate=1 / interlaced=0 / bluray_compat=0 / constrained_intra=0 / bframes=3 / b_pyramid=2 / b_adapt=1 / b_bias=0 / direct=3 / weightb=1 / open_gop=0 / weightp=2 / keyint=250 / keyint_min=25 / scenecut=40 / intra_refresh=0 / rc_lookahead=50 / rc=2pass / mbtree=1 / bitrate=5500 / ratetol=1.0 / qcomp=0.60 / qpmin=0 / qpmax=69 / qpstep=4 / cplxblur=20.0 / qblur=0.5 / vbv_maxrate=31250 / vbv_bufsize=31250 / nal_hrd=none / filler=0 / ip_ratio=1.40 / aq=1:1.00
Language : English
Default : Yes
Forced : No

Audio
ID : 2
Format : DTS
Format/Info : Digital Theater Systems
Codec ID : A_DTS
Duration : 1 h 45 min
Bit rate mode : Constant
Bit rate : 1 509 kb/s
Channel(s) : 6 channels
Channel layout : C L R Ls Rs LFE
Sampling rate : 48.0 kHz
Frame rate : 93.750 FPS (512 SPF)
Bit depth : 24 bits
Compression mode : Lossy
Stream size : 1.11 GiB (22%)
Title : Monstrum.2018.KOREAN.720p.BluRay.x264.DTS-FGT
Language : Korean
Default : Yes
Forced : No

Text
ID : 3
Format : UTF-8
Codec ID : S_TEXT/UTF8
Codec ID/Info : UTF-8 Plain Text
Duration : 1 h 40 min
Bit rate : 33 b/s
Count of elements : 863
Stream size : 24.8 KiB (0%)
Language : English
Default : Yes
Forced : Yes

Menu
00:00:00.000 : en:Chapter 01
00:03:55.000 : en:Chapter 02
00:09:28.833 : en:Chapter 03
00:15:19.125 : en:Chapter 04
00:19:05.500 : en:Chapter 05
00:26:30.875 : en:Chapter 06
00:32:49.291 : en:Chapter 07
00:37:59.250 : en:Chapter 08
00:42:13.333 : en:Chapter 09
00:47:27.375 : en:Chapter 10
00:51:53.791 : en:Chapter 11
01:01:09.500 : en:Chapter 12
01:08:35.333 : en:Chapter 13
01:13:26.125 : en:Chapter 14
01:17:36.833 : en:Chapter 15
01:20:46.416 : en:Chapter 16
01:25:47.750 : en:Chapter 17
01:30:09.583 : en:Chapter 18
01:34:30.416 : en:Chapter 19
01:41:21.875 : en:Chapter 20

游客,如果您要查看本帖隐藏内容请回复

回复

使用道具 举报

永恒神话

高清币
320
金钱
16122
鲜花
0
在线时间
1105 小时
最后登录
2019-4-21
发表于 2019-2-2 22:19:16 | 显示全部楼层

这个帖子不回对不起自己!我想我是一天也不能离开中国高清论坛
回复 支持 反对

使用道具 举报

永恒神话

高清币
320
金钱
16122
鲜花
0
在线时间
1105 小时
最后登录
2019-4-21
发表于 2019-2-2 22:19:34 | 显示全部楼层

既然你诚信诚意的推荐了,那我就勉为其难的看看吧!中国高清论坛不走平凡路。
回复 支持 反对

使用道具 举报

永恒神话

高清币
320
金钱
16122
鲜花
0
在线时间
1105 小时
最后登录
2019-4-21
发表于 2019-2-2 22:22:04 | 显示全部楼层

感谢楼主的无私分享!要想中国高清论坛好 就靠你我他
回复 支持 反对

使用道具 举报

好莱坞明星

高清币
1828
金钱
4128
鲜花
0
在线时间
529 小时
最后登录
2019-4-22
发表于 2019-2-2 22:22:25 | 显示全部楼层

我看不错噢 谢谢楼主!中国高清论坛越来越好!
回复 支持 反对

使用道具 举报

好莱坞明星

高清币
17
金钱
6860
鲜花
0
在线时间
1730 小时
最后登录
2019-4-22
发表于 2019-2-2 22:23:47 | 显示全部楼层
好东西啊,谢谢分享
回复 支持 反对

使用道具 举报

好莱坞明星

高清币
17
金钱
6860
鲜花
0
在线时间
1730 小时
最后登录
2019-4-22
发表于 2019-2-2 22:24:03 | 显示全部楼层

这东西我收了!谢谢楼主!中国高清论坛真好!
回复 支持 反对

使用道具 举报

金鸡奖主角

高清币
1258
金钱
3565
鲜花
0
在线时间
456 小时
最后登录
2019-4-22
发表于 2019-2-2 22:25:35 | 显示全部楼层
楼主发贴辛苦了,谢谢楼主分享!我觉得中国高清论坛是注册对了!
回复 支持 反对

使用道具 举报

超级明星

高清币
944
金钱
7717
鲜花
0
在线时间
2944 小时
最后登录
2019-4-22
发表于 2019-2-2 22:26:14 | 显示全部楼层

楼主太厉害了!楼主,电影应该很好看我觉得中国高清论坛真是个好地方!
回复 支持 反对

使用道具 举报

金鸡奖主角

高清币
526
金钱
2555
鲜花
0
在线时间
359 小时
最后登录
2019-4-21
发表于 2019-2-2 22:27:06 | 显示全部楼层

这东西我收了!谢谢楼主!中国高清论坛真好!
回复 支持 反对

使用道具 举报

懒得打字嘛,点击右侧快捷回复 【右侧内容,后台自定义】
您需要登录后才可以回帖 登录 | 立即注册

本版积分规则

QQ|手机版|小黑屋|中国高清论坛 ( 黔ICP备16007815号-1 )

GMT+8, 2019-4-22 16:27 , Processed in 0.052985 second(s), 29 queries .

Powered by Discuz! X3.4

© 2001-2017 Comsenz Inc.

快速回复 返回顶部 返回列表