请选择 进入手机版 | 继续访问电脑版

中国高清论坛

 找回密码
 立即注册
搜索
查看: 1246|回复: 214

[科幻片] 犬舍真人版 Inuyashiki.2018.JAPANESE.1080p.BluRay.x264.DTS-iKiW 11.19 GiB

  [复制链接]

超级版主

高清币
15556
金钱
36285
鲜花
-88
在线时间
11409 小时
最后登录
2019-4-19
发表于 2019-2-3 23:18:38 | 显示全部楼层 |阅读模式


◎译  名 犬舍 真人版/犬屋敷/杀戮重生犬屋敷(台)
◎片  名 いぬやしき/ Inuyashiki
◎年  代 2018
◎国  家 日本
◎类  别 剧情/科幻/惊悚
◎语  言 日语
◎IMDb评分 6.8/10 from 813 users
◎IMDB链接 http://www.imdb.com/title/tt6340500
◎片  长 2 h 6 min
◎导  演 佐藤信介 Shinsuke Sato
◎主  演 木梨宪武 Noritake Kinashi
      佐藤健 Takeru Satô
      本乡奏多 Kanata Hongô
      二阶堂富美 Fumi Nikaidou
      三吉彩花 Ayaka Miyoshi
      福崎那由他 Nayuta Fukuzaki
      滨田麻里 Mari Hamada
      齐藤由贵 Yuki Saitô
      伊势谷友介 Yûsuke Iseya


◎简  介

  《犬舍》根据同名漫画改编。故事讲述了平凡无奇、将近60岁的普通上班族‧犬屋敷, 在家里不受家人尊敬,也找不到自己活著的目标, 还被医生宣告将不久於人世。失意的他,却在公园与另一名少年被突如其来的外星生物砸到,整个身体都被摧毁了。不明的外星生物为了不影响地球的秩序,让犬屋敷和少年重生── 他们变成只有外表是人、身体却由机械所构成,拥有卓绝战斗能力的超强「人类」。两名尚拥有自己意志的「机械人类」会用这个力量作出什麼行动呢? 又会对世界带来什麼影响呢?

  1. Video
  2. ID : 1
  3. Format : AVC
  4. Format/Info : Advanced Video Codec
  5. Format profile : High@L4.1
  6. Format settings : CABAC / 5 Ref Frames
  7. Format settings, CABAC : Yes
  8. Format settings, ReFrames : 5 frames
  9. Codec ID : V_MPEG4/ISO/AVC
  10. Duration : 2 h 6 min
  11. Bit rate : 11.9 Mb/s
  12. Width : 1 920 pixels
  13. Height : 804 pixels
  14. Display aspect ratio : 2.40:1
  15. Frame rate mode : Constant
  16. Frame rate : 23.976 (24000/1001) FPS
  17. Color space : YUV
  18. Chroma subsampling : 4:2:0
  19. Bit depth : 8 bits
  20. Scan type : Progressive
  21. Bits/(Pixel*Frame) : 0.322
  22. Stream size : 10.5 GiB (94%)
  23. Title : x264_L4.1 @ 11,926 Kbps (crf 18)
  24. Writing library : x264 core 129 r2245+704+36 8e61944 tMod+MixAQ [8-bit@4:2:0 X86_64]
  25. Encoding settings : cabac=1 / ref=5 / deblock=1:-3:-3 / analyse=0x3:0x133 / me=umh / subme=11 / psy=1 / fade_compensate=0.00 / psy_rd=1.05:0.10 / mixed_ref=1 / me_range=64 / chroma_me=1 / trellis=2 / 8x8dct=1 / cqm=0 / deadzone=21,11 / fast_pskip=0 / chroma_qp_offset=-3 / threads=12 / lookahead_threads=2 / sliced_threads=0 / nr=0 / decimate=1 / interlaced=0 / bluray_compat=0 / constrained_intra=0 / fgo=0 / bframes=10 / b_pyramid=2 / b_adapt=2 / b_bias=0 / direct=3 / weightb=1 / open_gop=0 / weightp=2 / keyint=250 / keyint_min=23 / scenecut=40 / intra_refresh=0 / rc=crf / mbtree=0 / crf=18.0000 / qcomp=0.75 / qpmin=0 / qpmax=69 / qpstep=4 / ip_ratio=1.25 / pb_ratio=1.15 / aq=1 / aq-strength=0.65 / aq-sensitivity=10.00 / aq-ifactor=1.00 / aq-pfactor=1.00 / aq-bfactor=1.00 / aq2=0
  26. Language : Japanese
  27. Default : Yes
  28. Forced : No

  29. Audio
  30. ID : 2
  31. Format : DTS
  32. Format/Info : Digital Theater Systems
  33. Codec ID : A_DTS
  34. Duration : 2 h 6 min
  35. Bit rate mode : Constant
  36. Bit rate : 768 kb/s
  37. Channel(s) : 6 channels
  38. Channel layout : C L R Ls Rs LFE
  39. Sampling rate : 48.0 kHz
  40. Frame rate : 93.750 FPS (512 SPF)
  41. Bit depth : 24 bits
  42. Compression mode : Lossy
  43. Stream size : 693 MiB (6%)
  44. Title : Japanese DTS 5.1 @ 768 Kbps
  45. Language : Japanese
  46. Default : Yes
  47. Forced : No

  48. Text
  49. ID : 3
  50. Format : UTF-8
  51. Codec ID : S_TEXT/UTF8
  52. Codec ID/Info : UTF-8 Plain Text
  53. Duration : 2 h 0 min
  54. Bit rate : 39 b/s
  55. Count of elements : 1225
  56. Stream size : 34.9 KiB (0%)
  57. Language : English
  58. Default : Yes
  59. Forced : Yes

  60. Menu
  61. 00:00:00.000 : :00:00:00.000
  62. 00:08:11.324 : :00:08:11.324
  63. 00:13:49.412 : :00:13:49.412
  64. 00:19:04.518 : :00:19:04.518
  65. 00:24:45.609 : :00:24:45.609
  66. 00:30:41.923 : :00:30:41.923
  67. 00:38:23.885 : :00:38:23.885
  68. 00:43:40.576 : :00:43:40.576
  69. 00:49:53.199 : :00:49:53.199
  70. 00:56:35.058 : :00:56:35.058
  71. 01:00:14.152 : :01:00:14.152
  72. 01:06:05.295 : :01:06:05.295
  73. 01:13:47.298 : :01:13:47.298
  74. 01:20:11.932 : :01:20:11.932
  75. 01:23:43.894 : :01:23:43.894
  76. 01:32:55.236 : :01:32:55.236
  77. 01:44:05.197 : :01:44:05.197
  78. 01:51:41.194 : :01:51:41.194
  79. 01:56:47.292 : :01:56:47.292
  80. 02:01:22.400 : :02:01:22.400
复制代码







游客,如果您要查看本帖隐藏内容请回复
回复

使用道具 举报

人气偶像

高清币
252
金钱
1396
鲜花
0
在线时间
149 小时
最后登录
2019-2-27
发表于 2019-2-3 23:24:35 | 显示全部楼层

论坛不能没有像楼主这样的人才啊!我会一直支持中国高清论坛
回复 支持 反对

使用道具 举报

跑龙套

高清币
0
金钱
27
鲜花
0
在线时间
3 小时
最后登录
2019-3-3
发表于 2019-2-3 23:24:41 | 显示全部楼层
感谢楼主!谢谢资源么么哒
回复 支持 反对

使用道具 举报

superstar

高清币
70
金钱
11090
鲜花
0
在线时间
901 小时
最后登录
2019-4-20
发表于 2019-2-3 23:28:26 | 显示全部楼层

这个帖子不回对不起自己!我想我是一天也不能离开中国高清论坛
回复 支持 反对

使用道具 举报

superstar

高清币
70
金钱
11090
鲜花
0
在线时间
901 小时
最后登录
2019-4-20
发表于 2019-2-3 23:28:42 | 显示全部楼层
我看不错噢 谢谢楼主!中国高清论坛越来越好!
回复 支持 反对

使用道具 举报

金鸡奖主角

高清币
197
金钱
3800
鲜花
0
在线时间
475 小时
最后登录
2019-4-21
发表于 2019-2-3 23:29:07 | 显示全部楼层
楼主发贴辛苦了,谢谢楼主分享!我觉得中国高清论坛是注册对了!
回复 支持 反对

使用道具 举报

超级明星

高清币
1593
金钱
7795
鲜花
0
在线时间
1013 小时
最后登录
2019-4-20
发表于 2019-2-3 23:37:14 | 显示全部楼层
楼主发贴辛苦了,谢谢楼主分享!我觉得中国高清论坛是注册对了!
回复 支持 反对

使用道具 举报

好莱坞明星

高清币
512
金钱
6021
鲜花
0
在线时间
547 小时
最后登录
2019-4-21
发表于 2019-2-3 23:38:58 | 显示全部楼层

楼主太厉害了!楼主,电影应该很好看我觉得中国高清论坛真是个好地方!
回复 支持 反对

使用道具 举报

永恒神话

高清币
9436
金钱
32243
鲜花
10
在线时间
2108 小时
最后登录
2019-4-21
发表于 2019-2-3 23:52:26 | 显示全部楼层
感谢分享精彩好电影!!!
回复 支持 反对

使用道具 举报

天王巨星

高清币
246
金钱
2143
鲜花
0
在线时间
600 小时
最后登录
2019-4-21
发表于 2019-2-3 23:59:12 | 显示全部楼层
论坛不能没有像楼主这样的人才啊!
回复 支持 反对

使用道具 举报

懒得打字嘛,点击右侧快捷回复 【右侧内容,后台自定义】
您需要登录后才可以回帖 登录 | 立即注册

本版积分规则

QQ|手机版|小黑屋|中国高清论坛 ( 黔ICP备16007815号-1 )

GMT+8, 2019-4-21 18:34 , Processed in 0.051925 second(s), 29 queries .

Powered by Discuz! X3.4

© 2001-2017 Comsenz Inc.

快速回复 返回顶部 返回列表