请选择 进入手机版 | 继续访问电脑版

中国高清论坛

 找回密码
 立即注册
搜索
查看: 745|回复: 104

[剧情片] 猫咪咖啡厅[繁简中文字幕]Cat.Cafe.2018.JAPANESE.720 p.BluRay.x264-Wiki 2.82GB

  [复制链接]

龙行天下

高清币
33117
金钱
7152
鲜花
30
在线时间
1446 小时
最后登录
2019-4-12
发表于 2019-2-4 00:05:05 | 显示全部楼层 |阅读模式
f5e5dc0385b913aa.jpg
◎译  名 猫咪咖啡厅/猫之Cafe(港)
◎片  名 猫カフェ/ Cat Café
◎年  代 2018
◎产  地 日本
◎类  别 剧情
◎语  言 日语
◎IMDb评分 N/A
◎IMDB链接 N/A
◎片  长 1 h 29 min
◎导  演 沖田光
◎主  演 久保由利香 Yurika Kubo
       新井爱瞳 Manami Arai
       池内万作 Mansaku Ikeuchi
       小仓优香 Yuka Ogura


◎简  介


  「Mocha」,一间位于秋叶原的猫Café,由樱木樱(久保由利香 饰)暖心经营。每天都有各色各样的人到这Café 寻求猫咪的慰藉,希望能于这里暂时远离尘嚣,放松心情。
  志保(新井爱瞳 饰)是唱跳女子组合的成员,十分喜爱小猫,经常到Café 作客。志保虽然是偶像,但她与组合内其他成员的关系不太好,既孤独又失落的她打算引退……


  落魄的优作(池内万作 饰)由于与女儿关系疏离,所以慕追高清名到访Café,希望克服害怕猫喵的障碍,透过可爱的猫喵打破与女儿之间的隔阂。


  沙世(小仓优香 饰)的妈妈是一名失智症患者,不但忘记大小事务,更不时胡乱发脾气,令沙世非常难过。但在回忆的深深处,猫咪与沙世及妈妈有莫大的关系。


  而一向笑脸迎人的店长樱木樱(久保由利香 饰)亦有一段不堪回顾的往事,令她内心十分痛苦,这是无人能知晓的心事。


  充满烦恼的都市人,每天在Café进进出出,充满灵性的喵星人能否解救各人的心灵?
Video
ID : 1
Format : AVC
Format/Info : Advanced Video Codec
Format profile : High@L4.1
Format settings : CABAC / 9 Ref Frames
Format settings, CABAC : Yes
Format settings, ReFrames : 9 frames
Codec ID : V_MPEG4/ISO/AVC
Duration : 1 h 29 min
Bit rate : 4 110 kb/s
Width : 1 280 pixels
Height : 720 pixels
Display aspect ratio : 16:9
Frame rate mode : Constant
Frame rate : 24.000 FPS
Color space : YUV
Chroma subsampling : 4:2:0
Bit depth : 8 bits
Scan type : Progressive
Bits/(Pixel*Frame) : 0.186
Stream size : 2.58 GiB (92%)
Title : x264_L4.1 @ 4,110 Kbps (crf 18)
Writing library : x264 core 129 r2245+704+36 8e61944 tMod+MixAQ [8-bit@4:2:0 X86_64]
Encoding settings : cabac=1 / ref=9 / deblock=1:-3:-3 / analyse=0x3:0x133 / me=umh / subme=11 / psy=1 / fade_compensate=0.00 / psy_rd=1.05:0.10 / mixed_ref=1 / me_range=32 / chroma_me=1 / trellis=2 / 8x8dct=1 / cqm=0 / deadzone=21,11 / fast_pskip=0 / chroma_qp_offset=-3 / threads=12 / lookahead_threads=2 / sliced_threads=0 / nr=0 / decimate=1 / interlaced=0 / bluray_compat=0 / constrained_intra=0 / fgo=0 / bframes=10 / b_pyramid=2 / b_adapt=2 / b_bias=0 / direct=3 / weightb=1 / open_gop=0 / weightp=2 / keyint=250 / keyint_min=24 / scenecut=40 / intra_refresh=0 / rc=crf / mbtree=0 / crf=18.0000 / qcomp=0.70 / qpmin=0 / qpmax=69 / qpstep=4 / ip_ratio=1.25 / pb_ratio=1.15 / aq=1 / aq-strength=0.70 / aq-sensitivity=10.00 / aq-ifactor=1.00 / aq-pfactor=1.00 / aq-bfactor=1.00 / aq2=0
Language : Japanese
Default : Yes
Forced : No

Audio
ID : 2
Format : AAC LC
Format/Info : Advanced Audio Codec Low Complexity
Codec ID : A_AAC-2
Duration : 1 h 29 min
Bit rate : 373 kb/s
Channel(s) : 2 channels
Channel layout : L R
Sampling rate : 48.0 kHz
Frame rate : 46.875 FPS (1024 SPF)
Compression mode : Lossy
Stream size : 239 MiB (8%)
Title : Japanese AAC 2.0 @ 372 Kbps
Language : Japanese
Default : Yes
Forced : No

Text #1
ID : 3
Format : UTF-8
Codec ID : S_TEXT/UTF8
Codec ID/Info : UTF-8 Plain Text
Duration : 1 h 23 min
Bit rate : 25 b/s
Count of elements : 674
Stream size : 15.8 KiB (0%)
Title : Simplified Chinese
Language : Chinese
Default : Yes
Forced : No

Text #2
ID : 4
Format : UTF-8
Codec ID : S_TEXT/UTF8
Codec ID/Info : UTF-8 Plain Text
Duration : 1 h 23 min
Bit rate : 25 b/s
Count of elements : 674
Stream size : 15.8 KiB (0%)
Title : Traditional Chinese
Language : Chinese
Default : No
Forced : No

Menu
00:00:00.000 : :00:00:00.000
00:07:24.750 : :00:07:24.750
00:13:08.333 : :00:13:08.333
00:19:02.958 : :00:19:02.958
00:27:36.958 : :00:27:36.958
00:40:11.708 : :00:40:11.708
00:49:11.667 : :00:49:11.667
00:57:31.375 : :00:57:31.375
01:04:08.917 : :01:04:08.917
01:12:58.167 : :01:12:58.167
01:16:18.208 : :01:16:18.208
01:24:56.000 : :01:24:56.000

09989847033913501343_thumb.png 64482604731479851845_thumb.png 79209326118025538765_thumb.png
游客,如果您要查看本帖隐藏内容请回复

回复

使用道具 举报

永恒神话

高清币
9532
金钱
14474
鲜花
0
在线时间
869 小时
最后登录
2019-4-25
发表于 2019-2-4 00:09:03 | 显示全部楼层
感谢楼主分享精彩电影!
回复 支持 反对

使用道具 举报

永恒神话

高清币
9475
金钱
32336
鲜花
10
在线时间
2115 小时
最后登录
2019-4-25
发表于 2019-2-4 00:10:36 | 显示全部楼层
感谢分享精彩好电影!!!
回复 支持 反对

使用道具 举报

好莱坞明星

高清币
1796
金钱
5717
鲜花
0
在线时间
720 小时
最后登录
2019-4-25
发表于 2019-2-4 00:19:59 | 显示全部楼层
楼主发贴辛苦了,谢谢楼主分享!我觉得中国高清论坛是注册对了!
回复 支持 反对

使用道具 举报

禁止发言

高清币
24
金钱
28
鲜花
0
在线时间
1 小时
最后登录
2019-2-4
发表于 2019-2-4 00:21:17 | 显示全部楼层
提示: 作者被禁止或删除 内容自动屏蔽
回复 支持 反对

使用道具 举报

人气偶像

高清币
4
金钱
1524
鲜花
0
在线时间
417 小时
最后登录
2019-4-22
发表于 2019-2-4 00:38:00 | 显示全部楼层
感谢楼主分享精彩电影!
回复 支持 反对

使用道具 举报

人气偶像

高清币
4
金钱
1524
鲜花
0
在线时间
417 小时
最后登录
2019-4-22
发表于 2019-2-4 00:38:21 | 显示全部楼层
感谢楼主分享精彩电影!
回复 支持 反对

使用道具 举报

金鸡奖主角

高清币
123
金钱
2907
鲜花
0
在线时间
200 小时
最后登录
2019-4-16
发表于 2019-2-4 01:24:23 | 显示全部楼层


感谢楼主的无私分享!
回复 支持 反对

使用道具 举报

永恒神话

高清币
304
金钱
16163
鲜花
0
在线时间
1108 小时
最后登录
2019-4-24
发表于 2019-2-4 01:44:12 | 显示全部楼层

这东西我收了!谢谢楼主!中国高清论坛真好!
回复 支持 反对

使用道具 举报

永恒神话

高清币
43484
金钱
77859
鲜花
0
在线时间
1499 小时
最后登录
2019-4-24
发表于 2019-2-4 01:50:25 | 显示全部楼层

这东西我收了!谢谢楼主!中国高清论坛真好!
回复 支持 反对

使用道具 举报

懒得打字嘛,点击右侧快捷回复 【右侧内容,后台自定义】
您需要登录后才可以回帖 登录 | 立即注册

本版积分规则

QQ|手机版|小黑屋|中国高清论坛 ( 黔ICP备16007815号-1 )

GMT+8, 2019-4-25 10:14 , Processed in 0.050417 second(s), 29 queries .

Powered by Discuz! X3.4

© 2001-2017 Comsenz Inc.

快速回复 返回顶部 返回列表