请选择 进入手机版 | 继续访问电脑版

中国高清论坛

 找回密码
 立即注册
搜索
查看: 709|回复: 154

[战争片] 安市城 The.Great.Battle.2018.720p.BluRay.x264.DTS-HDC 8.56GB

  [复制链接]

龙行天下

高清币
33053
金钱
7152
鲜花
30
在线时间
1446 小时
最后登录
2019-4-12
发表于 2019-2-4 00:34:55 | 显示全部楼层 |阅读模式
poster_opt.jpg
◎译  名 安市城/Ansi City/The Great Battle/安市城:被遗弃者之城/浴血围城88天(台)
◎片  名 안시성
◎年  代 2018
◎产  地 韩国
◎类  别 剧情/传记/历史/战争
◎语  言 韩语
◎上映日期 2018-09-19(韩国)
◎IMDb评分 6.8/10 from 407 users
◎IMDb链接 https://www.imdb.com/title/tt6931414/
◎豆瓣评分 3.9/10 from 600 users
◎豆瓣链接 https://douban.com/subject/27026013/
◎导  演 金光植 Kwang-shik Kim
◎主  演 赵寅成 In-seong Jo
      南柱赫 Ju-Hyuk Nam
      朴圣雄 Seong-Woong Park
      裴晟祐 Sung-Woo Bae
      严泰久 Tae-goo Eom
      金雪炫 Seolyeon
      朴炳垠 Byung-eun Park
      成东日 Dong-il Sung
      郑恩彩 Eun-Chae Jeong
      刘五性 Oh-seong Yu
      吴大焕
      张光 Gwang Jang
      吴代焕 Oh Dae-hwan
      史蒂芬妮·李 Stephanie Lee
      呂會鉉 Yeo Hoe-hyun
      劉尚宰 Yoo Sang-jae
      郑成日 Jeong Seong-il


◎简  介


  影片由金光植([我的流氓爱人])执导,故事讲述唐朝50万大军攻打安市城,城主杨万春(赵寅成饰)遂带领高句丽将士与唐朝大军进行浴血奋战,死守88天。雪炫或将扮演赵寅成的妹妹。


Video
ID : 1
Format : AVC
Format/Info : Advanced Video Codec
Format profile : High@L4.1
Format settings : CABAC / 12 Ref Frames
Format settings, CABAC : Yes
Format settings, ReFrames : 12 frames
Codec ID : V_MPEG4/ISO/AVC
Duration : 2 h 16 min
Bit rate : 7 500 kb/s
Width : 1 280 pixels
Height : 536 pixels
Display aspect ratio : 2.40:1
Frame rate mode : Constant
Frame rate : 24.000 FPS
Color space : YUV
Chroma subsampling : 4:2:0
Bit depth : 8 bits
Scan type : Progressive
Bits/(Pixel*Frame) : 0.455
Stream size : 7.13 GiB (83%)
Writing library : x264 core 142 r2431+42 c69a006 tMod [8-bit@all X86_64]
Encoding settings : cabac=1 / ref=12 / deblock=1:-3:-3 / analyse=0x3:0x133 / me=umh / subme=11 / psy=1 / fade_compensate=0.00 / psy_rd=1.05:0.00 / mixed_ref=1 / me_range=32 / chroma_me=1 / trellis=2 / 8x8dct=1 / cqm=0 / deadzone=21,11 / fast_pskip=0 / chroma_qp_offset=-2 / threads=16 / lookahead_threads=2 / sliced_threads=0 / nr=0 / decimate=0 / interlaced=0 / bluray_compat=0 / constrained_intra=0 / fgo=0 / bframes=8 / b_pyramid=2 / b_adapt=2 / b_bias=0 / direct=3 / weightb=1 / open_gop=0 / weightp=2 / keyint=240 / keyint_min=24 / scenecut=40 / intra_refresh=0 / rc_lookahead=0 / rc=2pass / mbtree=0 / bitrate=7500 / ratetol=1.0 / qcomp=0.70 / qpmin=0:0:0 / qpmax=69:69:69 / qpstep=4 / cplxblur=20.0 / qblur=0.5 / vbv_maxrate=50000 / vbv_bufsize=30000 / nal_hrd=none / filler=0 / ip_ratio=1.20 / pb_ratio=1.20 / aq=3:0.85 / aq-sensitivity=10.00 / aq-factor=1.00:1.00:1.00 / aq2=0 / aq3=0
Default : Yes
Forced : No


Audio
ID : 2
Format : DTS
Format/Info : Digital Theater Systems
Codec ID : A_DTS
Duration : 2 h 16 min
Bit rate mode : Constant
Bit rate : 1 509 kb/s
Channel(s) : 6 channels
Channel layout : C L R Ls Rs LFE
Sampling rate : 48.0 kHz
Frame rate : 93.750 FPS (512 SPF)
Bit depth : 16 bits
Compression mode : Lossy
Stream size : 1.43 GiB (17%)
Language : Korean
Default : Yes
Forced : No


Text
ID : 3
Format : UTF-8
Codec ID : S_TEXT/UTF8
Codec ID/Info : UTF-8 Plain Text
Duration : 2 h 11 min
Bit rate : 24 b/s
Count of elements : 926
Stream size : 23.5 KiB (0%)
Language : English
Default : Yes
Forced : Yes


Menu
00:00:00.000 : :00:00:00.000
00:10:09.708 : :00:10:09.708
00:20:26.750 : :00:20:26.750
00:29:07.708 : :00:29:07.708
00:38:23.250 : :00:38:23.250
00:48:05.542 : :00:48:05.542
01:00:10.917 : :01:00:10.917
01:15:59.083 : :01:15:59.083
01:25:44.292 : :01:25:44.292
01:33:48.333 : :01:33:48.333
01:44:57.750 : :01:44:57.750
01:55:34.125 : :01:55:34.125
02:12:26.125 : :02:12:26.125
17479034092507760121_thumb.png 40895447750705657138_thumb.png 73606113983104947533_thumb.png
游客,如果您要查看本帖隐藏内容请回复


回复

使用道具 举报

金鸡奖主角

高清币
124
金钱
2908
鲜花
0
在线时间
200 小时
最后登录
2019-4-16
发表于 2019-2-4 01:22:08 | 显示全部楼层


感谢楼主的无私分享!
回复 支持 1 反对 0

使用道具 举报

金鸡奖主角

高清币
105
金钱
3543
鲜花
0
在线时间
600 小时
最后登录
2019-4-20
发表于 2019-2-4 00:45:19 | 显示全部楼层

楼主太厉害了!楼主,电影应该很好看我觉得中国高清论坛真是个好地方!
回复 支持 1 反对 0

使用道具 举报

天王巨星

高清币
1
金钱
2882
鲜花
0
在线时间
1582 小时
最后登录
2019-4-22
发表于 2019-2-4 01:23:49 | 显示全部楼层
感谢楼主的无私分享
回复 支持 反对

使用道具 举报

天王巨星

高清币
1
金钱
2882
鲜花
0
在线时间
1582 小时
最后登录
2019-4-22
发表于 2019-2-4 01:24:07 | 显示全部楼层
感谢楼主的无私分享
回复 支持 反对

使用道具 举报

永恒神话

高清币
43482
金钱
77849
鲜花
0
在线时间
1498 小时
最后登录
2019-4-22
发表于 2019-2-4 01:49:44 | 显示全部楼层

楼主太厉害了!楼主,电影应该很好看我觉得中国高清论坛真是个好地方!
回复 支持 反对

使用道具 举报

永恒神话

高清币
43482
金钱
77849
鲜花
0
在线时间
1498 小时
最后登录
2019-4-22
发表于 2019-2-4 01:50:00 | 显示全部楼层

这东西我收了!谢谢楼主!中国高清论坛真好!
回复 支持 反对

使用道具 举报

人气偶像

高清币
0
金钱
1647
鲜花
0
在线时间
371 小时
最后登录
2019-4-13
发表于 2019-2-4 01:57:16 | 显示全部楼层

这东西我收了!谢谢楼主!中国高清论坛真好!
回复 支持 反对

使用道具 举报

人气偶像

高清币
0
金钱
1647
鲜花
0
在线时间
371 小时
最后登录
2019-4-13
发表于 2019-2-4 01:57:44 | 显示全部楼层

这个帖子不回对不起自己!我想我是一天也不能离开中国高清论坛
回复 支持 反对

使用道具 举报

知名艺人

高清币
20
金钱
165
鲜花
0
在线时间
42 小时
最后登录
2019-2-4
发表于 2019-2-4 02:04:02 | 显示全部楼层
感谢楼主分享
回复 支持 反对

使用道具 举报

懒得打字嘛,点击右侧快捷回复 【右侧内容,后台自定义】
您需要登录后才可以回帖 登录 | 立即注册

本版积分规则

QQ|手机版|小黑屋|中国高清论坛 ( 黔ICP备16007815号-1 )

GMT+8, 2019-4-22 16:51 , Processed in 0.057326 second(s), 30 queries .

Powered by Discuz! X3.4

© 2001-2017 Comsenz Inc.

快速回复 返回顶部 返回列表