请选择 进入手机版 | 继续访问电脑版

中国高清论坛

 找回密码
 立即注册
搜索
查看: 905|回复: 192

[悬疑片] 燃烧 Burning.2018.KOREAN.720p.BluRay.x264.DTS-FGT 6.49GB

  [复制链接]

龙行天下

高清币
33117
金钱
7152
鲜花
30
在线时间
1446 小时
最后登录
2019-4-12
发表于 2019-2-4 16:45:10 | 显示全部楼层 |阅读模式
poster_opt.jpg
◎译  名 燃烧 / Beoning / Burning / 烧失乐园(港) / 燃烧烈爱(台)
◎片  名 버닝
◎年  代 2018
◎产  地 韩国
◎类  别 剧情 / 悬疑
◎语  言 韩语
◎上映日期 2018-05-16(戛纳电影节) / 2018-05-17(韩国)
◎IMDb评分 7.7/10 from 11955 users
◎IMDb链接 http://www.imdb.com/title/tt7282468
◎豆瓣评分 7.9/10 from 127701 users
◎豆瓣链接 https://movie.douban.com/subject/26842702/
◎片  长 148分钟
◎导  演 李沧东 Chang-dong Lee
◎编  剧 李沧东 Chang-dong Lee / Jungmi Oh / 村上春树 Haruki Murakami
◎主  演 刘亚仁 Ah-in Yu
      史蒂文·元 Steven Yeun
      全钟淑 Jong-seo Jeon
      金秀庆 Kim Soo-kyeong
      崔胜浩 Choi Seungho
      玉子妍 Ok Ja-yeon Ok

◎标  签 韩国 | 悬疑 | 村上春树 | 韩国电影 | 李沧东 | 刘亚仁 | 2018 | 剧情


◎简  介  


  目标成为作家的青年李钟秀(刘亚仁 饰),平日里靠兼职养活自己。经营畜牧业的父亲不谙人情,官司缠身,迫使钟秀又要为了搭救父亲而四处奔走。这一日,钟秀在某大型卖场重逢了当年的同学申惠美(全钟淑 饰)。惠美计划近期前往非洲旅行,于是拜托钟秀照看爱猫Boil。不久后惠美回国,与之一同下飞机的还有名叫本(史蒂文·元 饰)的男子。本驾驶保时捷,居住在高级公寓内,优哉游哉,不见工作,四处玩乐,和钟秀相比有如天上地下。不知为何,本走入平民钟秀和惠美的生活,更向新朋友讲述了他奇特的癖好。在钟秀家小聚的那个晚上过后,惠美仿佛人间蒸发了一般无影无踪……

本片根据村上春树的短篇小说《烧仓房》改编。

◎获奖情况  

  第71届戛纳电影节(2018)

  主竞赛单元 金棕榈奖(提名) 李沧东

  费比西奖 竞赛单元奖 李沧东

  第39届韩国电影青龙奖(2018)

  最佳男主角(提名) 刘亚仁

  最佳男配角(提名) 史蒂文·元

  最佳新人女演员(提名) 全钟瑞

  最佳配乐(提名)


  第13届亚洲电影大奖(2019)

  最佳电影(提名)

  最佳导演(提名) 李沧东

  最佳男主角(提名) 刘亚仁

  最佳新演员(提名) 全钟瑞

  最佳编剧(提名)

  最佳摄影(提名)

  最佳美术指导(提名)

  最佳音响(提名)

  第55届韩国电影大钟奖(2018)

  最佳影片

  最佳导演(提名) 李沧东

  最佳男主角(提名) 刘亚仁

  最佳男配角(提名) 史蒂文·元

  最佳新人女演员(提名) 全钟瑞

  最佳摄影(提名)

  最佳音乐(提名) 李圣贤

  最佳照明(提名)

  第90届美国国家评论协会奖(2018)

  五佳外语片

  第24届美国评论家选择电影奖(2019)

  最佳外语片(提名)

  第34届美国独立精神奖(2019)

  最佳国际电影(提名)

  第53届美国国家影评人协会奖(2019)

  最佳影片(提名)

  最佳导演(提名) 李沧东

  最佳男配角 史蒂文·元

  最佳外语片(提名)

  第17届华盛顿影评人协会奖(2018)

  最佳外语片(提名)

  第39届波士顿影评人协会奖(2018)

  最佳男配角(提名) 史蒂文·元

  第44届洛杉矶影评人协会奖(2018)

  最佳影片(提名)

  最佳男配角 史蒂文·元

  最佳外语片

  第31届芝加哥影评人协会奖(2018)

  最佳男配角(提名) 史蒂文·元

  最佳外语片(提名)

  第17届旧金山影评人协会奖(2018)

  最佳外语片(提名)

  第18届温哥华影评人协会奖(2019)

  最佳男配角(提名) 史蒂文·元

  最佳外语片(提名)

  第22届美国在线影评人协会奖(2019)

  最佳男配角(提名) 史蒂文·元

  最佳非英语片(提名)

  第5届豆瓣电影年度榜单(2018)

  最受关注的非院线电影(提名)

  评分最高的韩国电影(提名)

Video
ID : 1
Format : AVC
Format/Info : Advanced Video Codec
Format profile : High@L4.1
Format settings : CABAC / 4 Ref Frames
Format settings, CABAC : Yes
Format settings, ReFrames : 4 frames
Codec ID : V_MPEG4/ISO/AVC
Duration : 2 h 28 min
Bit rate : 5 500 kb/s
Width : 1 280 pixels
Height : 536 pixels
Display aspect ratio : 2.40:1
Frame rate mode : Constant
Frame rate : 24.000 FPS
Color space : YUV
Chroma subsampling : 4:2:0
Bit depth : 8 bits
Scan type : Progressive
Bits/(Pixel*Frame) : 0.334
Stream size : 5.69 GiB (88%)
Title : Burning.2018.KOREAN.720p.BluRay.x264.DTS-FGT
Writing library : x264 core 148 r2748 97eaef2
Encoding settings : cabac=1 / ref=4 / deblock=1:-2:-2 / analyse=0x3:0x113 / me=umh / subme=9 / psy=1 / psy_rd=1.00:0.15 / mixed_ref=1 / me_range=16 / chroma_me=1 / trellis=2 / 8x8dct=1 / cqm=0 / deadzone=21,11 / fast_pskip=1 / chroma_qp_offset=-3 / threads=24 / lookahead_threads=3 / sliced_threads=0 / nr=0 / decimate=1 / interlaced=0 / bluray_compat=0 / constrained_intra=0 / bframes=3 / b_pyramid=2 / b_adapt=1 / b_bias=0 / direct=3 / weightb=1 / open_gop=0 / weightp=2 / keyint=250 / keyint_min=25 / scenecut=40 / intra_refresh=0 / rc_lookahead=50 / rc=2pass / mbtree=1 / bitrate=5500 / ratetol=1.0 / qcomp=0.60 / qpmin=0 / qpmax=69 / qpstep=4 / cplxblur=20.0 / qblur=0.5 / vbv_maxrate=31250 / vbv_bufsize=31250 / nal_hrd=none / filler=0 / ip_ratio=1.40 / aq=1:1.00
Language : Korean
Default : Yes
Forced : No

Audio
ID : 2
Format : DTS
Format/Info : Digital Theater Systems
Codec ID : A_DTS
Duration : 2 h 28 min
Bit rate mode : Constant
Bit rate : 768 kb/s
Channel(s) : 6 channels
Channel layout : C L R Ls Rs LFE
Sampling rate : 48.0 kHz
Frame rate : 93.750 FPS (512 SPF)
Bit depth : 16 bits
Compression mode : Lossy
Stream size : 814 MiB (12%)
Title : Burning.2018.KOREAN.720p.BluRay.x264.DTS-FGT
Language : Korean
Default : Yes
Forced : No

Text
ID : 3
Format : UTF-8
Codec ID : S_TEXT/UTF8
Codec ID/Info : UTF-8 Plain Text
Duration : 2 h 24 min
Bit rate : 25 b/s
Count of elements : 1038
Stream size : 26.9 KiB (0%)
Language : English
Default : Yes
Forced : Yes

Menu
00:00:00.000 : en:Chapter 1
00:25:02.292 : en:Chapter 2
00:49:34.208 : en:Chapter 3
01:14:56.667 : en:Chapter 4
01:39:44.375 : en:Chapter 5
02:04:45.333 : en:Chapter 6
05732789741646292637_thumb.png 16515751023214738034_thumb.png
游客,如果您要查看本帖隐藏内容请回复

回复

使用道具 举报

禁止发言

高清币
24
金钱
28
鲜花
0
在线时间
1 小时
最后登录
2019-2-4
发表于 2019-2-4 17:19:07 | 显示全部楼层
提示: 作者被禁止或删除 内容自动屏蔽
回复 支持 反对

使用道具 举报

人气偶像

高清币
13
金钱
1569
鲜花
0
在线时间
250 小时
最后登录
2019-4-5
发表于 2019-2-4 17:23:18 | 显示全部楼层
楼主发贴辛苦了,谢谢楼主分享!我觉得中国高清论坛是注册对了!
回复 支持 反对

使用道具 举报

金鸡奖主角

高清币
1036
金钱
4240
鲜花
0
在线时间
532 小时
最后登录
2019-4-23
发表于 2019-2-4 18:38:17 | 显示全部楼层

这东西我收了!谢谢楼主!中国高清论坛真好!
回复 支持 反对

使用道具 举报

天王巨星

高清币
307
金钱
3079
鲜花
0
在线时间
835 小时
最后登录
2019-4-21
发表于 2019-2-4 18:54:27 | 显示全部楼层
楼主发贴辛苦了,谢谢楼主分享!我觉得中国高清论坛是注册对了!
回复 支持 反对

使用道具 举报

金鸡奖主角

高清币
113
金钱
3795
鲜花
0
在线时间
3609 小时
最后登录
2019-4-25
发表于 2019-2-4 19:04:06 | 显示全部楼层

楼主太厉害了!楼主,电影应该很好看我觉得中国高清论坛真是个好地方!
回复 支持 反对

使用道具 举报

永恒神话

高清币
304
金钱
16163
鲜花
0
在线时间
1108 小时
最后登录
2019-4-24
发表于 2019-2-4 19:23:12 | 显示全部楼层

我看不错噢 谢谢楼主!中国高清论坛越来越好!
回复 支持 反对

使用道具 举报

永恒神话

高清币
9532
金钱
14474
鲜花
0
在线时间
869 小时
最后登录
2019-4-25
发表于 2019-2-4 19:30:23 | 显示全部楼层
楼主发贴辛苦了,谢谢楼主分享!我觉得中国高清论坛是注册对了!
回复 支持 反对

使用道具 举报

金鸡奖主角

高清币
65
金钱
3870
鲜花
0
在线时间
997 小时
最后登录
2019-4-4
发表于 2019-2-4 19:59:48 | 显示全部楼层

楼主太厉害了!楼主,电影应该很好看我觉得中国高清论坛真是个好地方!
回复 支持 反对

使用道具 举报

superstar

高清币
4861
金钱
10655
鲜花
0
在线时间
1022 小时
最后登录
2019-4-23
发表于 2019-2-4 20:55:42 | 显示全部楼层
感谢楼主分享
回复 支持 反对

使用道具 举报

懒得打字嘛,点击右侧快捷回复 【右侧内容,后台自定义】
您需要登录后才可以回帖 登录 | 立即注册

本版积分规则

QQ|手机版|小黑屋|中国高清论坛 ( 黔ICP备16007815号-1 )

GMT+8, 2019-4-25 10:39 , Processed in 0.050187 second(s), 29 queries .

Powered by Discuz! X3.4

© 2001-2017 Comsenz Inc.

快速回复 返回顶部 返回列表