请选择 进入手机版 | 继续访问电脑版

中国高清论坛

 找回密码
 立即注册
搜索
查看: 429|回复: 66

[冒险片] 杀死希特勒与大脚怪的人2018.720p.AMZN.WEBRip.DDP5.1.x264-NTG 2.87GB

  [复制链接]

龙行天下

高清币
33052
金钱
7152
鲜花
30
在线时间
1446 小时
最后登录
2019-4-12
发表于 2019-2-8 23:24:24 | 显示全部楼层 |阅读模式
poster_opt.jpg
导演: Robert D. Krzykowski
编剧: Robert D. Krzykowski
主演: 山姆·艾里奥特 / 艾丹·特纳 / 朗·里维斯顿 / 肖恩·布里吉格斯 / 凯特琳·菲茨杰拉德 / 拉里·米勒 / 埃拉·科尔特兰 / 里兹万·曼吉 / 马克·斯达格 / 阿尔顿·菲茨杰拉德·怀特 / 特里·霍兰德 / 罗丝玛丽·霍华德 / Anastasia Tsikhanava / Mark Lund / Alan Francis / Rocco Gioffre / Daniel B. Martin
类型: 剧情 / 冒险
制片国家/地区: 美国
语言: 英语
上映日期: 2019-02-08(美国)
片长: 98分钟
又名: 先杀希特勒后杀大脚怪的男人
IMDb链接: tt7042862
杀死希特勒与大脚怪的人的剧情简介 · · · · · ·  山姆·艾里奥特(《一个明星的诞生》《谋杀绿脚趾》)饰演的Calvin看似只是个普通的带狗老人,等艾丹·特纳(《霍比特人》《无人生还》)饰演的年轻时的他登场,才知原来当年竟是他杀死了阿道夫·希特勒。几十年后的如今,Calvin大隐隐于市,却被美国政府再找上门,希望他再次拯救世界:去加拿大翻山越岭,杀死传说中的“雪人”大脚怪,它身上带着致命瘟疫。

Video
ID : 1
Format : AVC
Format/Info : Advanced Video Codec
Format profile : High@L3.1
Format settings : CABAC / 4 Ref Frames
Format settings, CABAC : Yes
Format settings, ReFrames : 4 frames
Codec ID : V_MPEG4/ISO/AVC
Duration : 1 h 37 min
Bit rate mode : Constant
Bit rate : 3 566 kb/s
Nominal bit rate : 6 000 kb/s
Width : 1 280 pixels
Height : 720 pixels
Display aspect ratio : 16:9
Frame rate mode : Constant
Frame rate : 23.976 (24000/1001) FPS
Color space : YUV
Chroma subsampling : 4:2:0
Bit depth : 8 bits
Scan type : Progressive
Bits/(Pixel*Frame) : 0.161
Stream size : 2.44 GiB (85%)
Default : Yes
Forced : No
Color range : Limited
Color primaries : BT.709
Transfer characteristics : BT.709
Matrix coefficients : BT.709

Audio
ID : 2
Format : E-AC-3
Format/Info : Enhanced AC-3
Commercial name : Dolby Digital Plus
Codec ID : A_EAC3
Duration : 1 h 37 min
Bit rate mode : Constant
Bit rate : 640 kb/s
Channel(s) : 6 channels
Channel layout : L R C LFE Ls Rs
Sampling rate : 48.0 kHz
Frame rate : 31.250 FPS (1536 SPF)
Compression mode : Lossy
Stream size : 448 MiB (15%)
Language : English
Service kind : Complete Main
Default : Yes
Forced : No

Text #1
ID : 3
Format : UTF-8
Codec ID : S_TEXT/UTF8
Codec ID/Info : UTF-8 Plain Text
Duration : 1 h 30 min
Bit rate : 43 b/s
Count of elements : 1116
Stream size : 29.3 KiB (0%)
Title : SDH
Language : English
Default : No
Forced : No

Text #2
ID : 4
Format : UTF-8
Codec ID : S_TEXT/UTF8
Codec ID/Info : UTF-8 Plain Text
Duration : 1 h 29 min
Bit rate : 31 b/s
Count of elements : 793
Stream size : 20.6 KiB (0%)
Language : Spanish
Default : No
Forced : No

Text #3
ID : 5
Format : UTF-8
Codec ID : S_TEXT/UTF8
Codec ID/Info : UTF-8 Plain Text
Duration : 1 h 29 min
Bit rate : 38 b/s
Count of elements : 830
Stream size : 25.1 KiB (0%)
Language : French
Default : No
Forced : No

05845598142707517479_thumb.png 40465515236759035761_thumb.png 57930995859567260186_thumb.png
游客,如果您要查看本帖隐藏内容请回复

回复

使用道具 举报

知名艺人

高清币
0
金钱
166
鲜花
0
在线时间
28 小时
最后登录
2019-3-15
发表于 2019-2-8 23:49:53 | 显示全部楼层

论坛不能没有像楼主这样的人才啊!我会一直支持中国高清论坛
回复 支持 反对

使用道具 举报

金鸡奖主角

高清币
482
金钱
4320
鲜花
0
在线时间
402 小时
最后登录
2019-4-22
发表于 2019-2-8 23:51:24 | 显示全部楼层

楼主太厉害了!楼主,电影应该很好看我觉得中国高清论坛真是个好地方!
回复 支持 反对

使用道具 举报

金鸡奖主角

高清币
199
金钱
4546
鲜花
0
在线时间
1343 小时
最后登录
2019-4-22
发表于 2019-2-8 23:59:48 | 显示全部楼层
楼主发贴辛苦了,谢谢楼主分享!我觉得中国高清论坛是注册对了!
回复 支持 反对

使用道具 举报

永恒神话

高清币
9446
金钱
32259
鲜花
10
在线时间
2110 小时
最后登录
2019-4-22
发表于 2019-2-9 01:14:51 | 显示全部楼层
感谢分享精彩好电影!!!
回复 支持 反对

使用道具 举报

天王巨星

高清币
223
金钱
2909
鲜花
0
在线时间
824 小时
最后登录
2019-4-22
发表于 2019-2-9 01:28:18 | 显示全部楼层
楼主发贴辛苦了,谢谢楼主分享!我觉得中国高清论坛是注册对了!
回复 支持 反对

使用道具 举报

超级明星

高清币
637
金钱
7573
鲜花
0
在线时间
3378 小时
最后登录
2019-4-22
发表于 2019-2-9 08:07:01 | 显示全部楼层
这个电影名称有点怪。
回复 支持 反对

使用道具 举报

永恒神话

高清币
9520
金钱
14443
鲜花
0
在线时间
861 小时
最后登录
2019-4-22
发表于 2019-2-9 08:48:35 | 显示全部楼层
感谢楼主分享精彩电影!
回复 支持 反对

使用道具 举报

影坛巨星

高清币
1454
金钱
8854
鲜花
0
在线时间
1094 小时
最后登录
2019-4-21
发表于 2019-2-9 09:19:25 | 显示全部楼层
楼主发贴辛苦了,谢谢楼主分享!我觉得中国高清论坛是注册对了!
回复 支持 反对

使用道具 举报

懒得打字嘛,点击右侧快捷回复 【右侧内容,后台自定义】
您需要登录后才可以回帖 登录 | 立即注册

本版积分规则

QQ|手机版|小黑屋|中国高清论坛 ( 黔ICP备16007815号-1 )

GMT+8, 2019-4-22 15:58 , Processed in 0.050548 second(s), 29 queries .

Powered by Discuz! X3.4

© 2001-2017 Comsenz Inc.

快速回复 返回顶部 返回列表