请选择 进入手机版 | 继续访问电脑版

中国高清论坛

 找回密码
 立即注册
搜索
查看: 1478|回复: 196

[科幻片] 杂交种 Crossbreed.2019.720p.AMZN.WEBRip.DDP5.1.x264-NTG 2.52GB

  [复制链接]

龙行天下

高清币
33053
金钱
7152
鲜花
30
在线时间
1446 小时
最后登录
2019-4-12
发表于 2019-2-9 02:27:12 | 显示全部楼层 |阅读模式
4c8c7b8ce1e9942736ec2293d600b84d.jpg

◎译  名 杂交种
◎片  名 Crossbreed
◎年  代 2018
◎产  地 美国
◎类  别 动作 / 科幻 / 惊悚
◎语  言 英语
◎片  长 92分钟
◎导  演 Brandon Slagle
◎编  剧 Brandon Slagle / Robert Thompson
◎主  演 薇薇卡·福克斯 Vivica A. Fox
      弗农·威尔斯 Vernon Wells
      丹尼尔·鲍德温 Daniel Baldwin


◎简  介  

  In the near future, the President of the New United States of America hires a team of military veterans to retrieve an alien bio-weapon from a top secret research facility orbiting the Earth.

Video
ID : 1
Format : AVC
Format/Info : Advanced Video Codec
Format profile : High@L3.1
Format settings : CABAC / 4 Ref Frames
Format settings, CABAC : Yes
Format settings, ReFrames : 4 frames
Codec ID : V_MPEG4/ISO/AVC
Duration : 1 h 25 min
Bit rate mode : Constant
Bit rate : 3 564 kb/s
Nominal bit rate : 6 000 kb/s
Width : 1 280 pixels
Height : 544 pixels
Display aspect ratio : 2.35:1
Original display aspect ratio : 2.35:1
Frame rate mode : Constant
Frame rate : 23.976 (24000/1001) FPS
Color space : YUV
Chroma subsampling : 4:2:0
Bit depth : 8 bits
Scan type : Progressive
Bits/(Pixel*Frame) : 0.213
Stream size : 2.13 GiB (85%)
Default : Yes
Forced : No
Color range : Limited
Color primaries : BT.709
Transfer characteristics : BT.709
Matrix coefficients : BT.709

Audio
ID : 2
Format : E-AC-3
Format/Info : Enhanced AC-3
Commercial name : Dolby Digital Plus
Codec ID : A_EAC3
Duration : 1 h 25 min
Bit rate mode : Constant
Bit rate : 640 kb/s
Channel(s) : 6 channels
Channel layout : L R C LFE Ls Rs
Sampling rate : 48.0 kHz
Frame rate : 31.250 FPS (1536 SPF)
Compression mode : Lossy
Stream size : 392 MiB (15%)
Language : English
Service kind : Complete Main
Default : Yes
Forced : No

Text
ID : 3
Format : UTF-8
Codec ID : S_TEXT/UTF8
Codec ID/Info : UTF-8 Plain Text
Duration : 1 h 25 min
Bit rate : 63 b/s
Count of elements : 1719
Stream size : 39.9 KiB (0%)
Title : SDH
Language : English
Default : No
Forced : No

fa888ec5eb2ebdaffd321803f723f77c.jpg 40f242e5c11d3e6336af14062553357b.jpg
游客,如果您要查看本帖隐藏内容请回复

回复

使用道具 举报

影坛巨星

高清币
52
金钱
10658
鲜花
0
在线时间
2153 小时
最后登录
2019-4-21
发表于 2019-2-9 02:29:26 | 显示全部楼层

楼主太厉害了!楼主,电影应该很好看我觉得中国高清论坛真是个好地方!
回复 支持 反对

使用道具 举报

superstar

高清币
5748
金钱
9955
鲜花
0
在线时间
1031 小时
最后登录
2019-4-22
发表于 2019-2-9 02:34:18 | 显示全部楼层
楼主发贴辛苦了,谢谢楼主分享!我觉得中国高清论坛是注册对了!
回复 支持 反对

使用道具 举报

跑龙套

高清币
4
金钱
64
鲜花
0
在线时间
12 小时
最后登录
2019-3-10
发表于 2019-2-9 03:47:08 | 显示全部楼层
过年过来高清看看
回复 支持 反对

使用道具 举报

超级明星

高清币
1975
金钱
8621
鲜花
0
在线时间
327 小时
最后登录
2019-4-22
发表于 2019-2-9 03:57:53 | 显示全部楼层
楼主发贴辛苦了,谢谢楼主分享!我觉得中国高清论坛是注册对了!
回复 支持 反对

使用道具 举报

永恒神话

高清币
9451
金钱
32264
鲜花
10
在线时间
2110 小时
最后登录
2019-4-22
发表于 2019-2-9 07:05:42 | 显示全部楼层
感谢分享精彩好电影!!!
回复 支持 反对

使用道具 举报

金鸡奖主角

高清币
699
金钱
4478
鲜花
0
在线时间
1070 小时
最后登录
2019-4-22
发表于 2019-2-9 08:04:39 | 显示全部楼层

楼主太厉害了!楼主,电影应该很好看我觉得中国高清论坛真是个好地方!
回复 支持 反对

使用道具 举报

人气偶像

高清币
114
金钱
942
鲜花
0
在线时间
250 小时
最后登录
2019-4-21
发表于 2019-2-9 09:09:45 | 显示全部楼层


『720P高清电影下载』›杂交种 Crossbreed.2019.720p.AM ...›参与/回复主题

RE: 杂交种 Crossbreed.2019.720p.AMZN.WEBRip.DDP5.1.x264-NTG 2.52GB





回复 支持 反对

使用道具 举报

影坛巨星

高清币
1454
金钱
8854
鲜花
0
在线时间
1094 小时
最后登录
2019-4-21
发表于 2019-2-9 09:16:30 | 显示全部楼层
楼主发贴辛苦了,谢谢楼主分享!我觉得中国高清论坛是注册对了!
回复 支持 反对

使用道具 举报

天王巨星

高清币
377
金钱
2650
鲜花
0
在线时间
306 小时
最后登录
2019-4-19
发表于 2019-2-9 09:55:24 | 显示全部楼层
论坛不能没有像楼主这样的人才啊!我会一直支持中国高清论坛。
回复 支持 反对

使用道具 举报

懒得打字嘛,点击右侧快捷回复 【右侧内容,后台自定义】
您需要登录后才可以回帖 登录 | 立即注册

本版积分规则

QQ|手机版|小黑屋|中国高清论坛 ( 黔ICP备16007815号-1 )

GMT+8, 2019-4-22 17:09 , Processed in 0.054898 second(s), 29 queries .

Powered by Discuz! X3.4

© 2001-2017 Comsenz Inc.

快速回复 返回顶部 返回列表