请选择 进入手机版 | 继续访问电脑版

中国高清论坛

 找回密码
 立即注册
搜索
查看: 483|回复: 77

[剧情片] 混蛋科林,新年快乐/新年不快乐 2018.720p.WEBRip.AAC2.0.x264-Cinefeel 2.92GB

  [复制链接]

龙行天下

高清币
33053
金钱
7152
鲜花
30
在线时间
1446 小时
最后登录
2019-4-12
发表于 2019-2-9 22:16:53 | 显示全部楼层 |阅读模式
8d34301d890c1f6e6b8d7baf84398ce1.jpg

◎译  名 混蛋科林,新年快乐 / Colin You Anus / 新年不快乐(港)
◎片  名 Happy New Year, Colin Burstead.
◎年  代 2018
◎产  地 英国
◎类  别 剧情
◎语  言 英语
◎上映日期 2018-10-11(英国伦敦电影节)
◎IMDb评分 6.6/10 from 617 users
◎片  长 95分钟
◎导  演 本·维特利  Ben Wheatley
◎编  剧 本·维特利  Ben Wheatley
◎主  演 尼尔·马斯克尔 Neil Maskell
      乔·科尔 Joe Cole
      查尔斯·丹斯 Charles Dance
      海莉·斯奎尔斯 Hayley Squires
      萨姆·赖利 Sam Riley


◎简  介  

  本·维特利打造的全新影片[科林你个菊花]有新消息,影片卡司曝光,包括尼尔·马斯克尔、乔·科尔、查尔斯·丹斯、海莉·斯奎尔斯、萨姆·赖利。导演表示该片并没有像其他人说的有特别大的转变,而影片或多或少有着处女作[罪恶之家]以及他许多电视节目的影子。

◎获奖情况  

  第21届英国独立电影奖(2018)
  最佳剪辑(提名)

Video
ID : 2
Format : AVC
Format/Info : Advanced Video Codec
Format profile : High@L3.2
Format settings : CABAC / 4 Ref Frames
Format settings, CABAC : Yes
Format settings, ReFrames : 4 frames
Codec ID : V_MPEG4/ISO/AVC
Duration : 1 h 28 min
Bit rate : 4 381 kb/s
Width : 1 280 pixels
Height : 720 pixels
Display aspect ratio : 16:9
Frame rate mode : Constant
Frame rate : 50.000 FPS
Color space : YUV
Chroma subsampling : 4:2:0
Bit depth : 8 bits
Scan type : Progressive
Bits/(Pixel*Frame) : 0.095
Stream size : 2.72 GiB (93%)
Default : Yes
Forced : No
Color range : Limited
Color primaries : BT.709
Transfer characteristics : BT.709
Matrix coefficients : BT.709

Audio
ID : 1
Format : AAC LC
Format/Info : Advanced Audio Codec Low Complexity
Codec ID : A_AAC-2
Duration : 1 h 28 min
Bit rate : 317 kb/s
Channel(s) : 2 channels
Channel layout : L R
Sampling rate : 48.0 kHz
Frame rate : 46.875 FPS (1024 SPF)
Compression mode : Lossy
Stream size : 202 MiB (7%)
Language : English
Default : Yes
Forced : No

Text
ID : 3
Format : UTF-8
Codec ID : S_TEXT/UTF8
Codec ID/Info : UTF-8 Plain Text
Duration : 1 h 28 min
Bit rate : 210 b/s
Count of elements : 1721
Stream size : 136 KiB (0%)
Language : English
Default : No
Forced : No

f8e70e02f1c0cb957d1ea698a7f32a37.jpg 94e8532bc0be414c02b1f5ceeb26dd0b.jpg
游客,如果您要查看本帖隐藏内容请回复

回复

使用道具 举报

禁止发言

高清币
26
金钱
30
鲜花
0
在线时间
0 小时
最后登录
2019-2-10
发表于 2019-2-9 23:01:53 | 显示全部楼层
提示: 作者被禁止或删除 内容自动屏蔽
回复 支持 1 反对 0

使用道具 举报

VIP贵宾

高清币
7
金钱
3026
鲜花
0
在线时间
626 小时
最后登录
2019-4-22
发表于 2019-2-9 22:55:12 | 显示全部楼层
多謝 ! 給大家分享 !
回复 支持 1 反对 0

使用道具 举报

好莱坞明星

高清币
7
金钱
6071
鲜花
0
在线时间
1505 小时
最后登录
2019-4-21
发表于 2019-2-9 22:29:45 | 显示全部楼层
楼主发贴辛苦了,谢谢楼主分享
回复 支持 反对

使用道具 举报

超级明星

高清币
1975
金钱
8621
鲜花
0
在线时间
327 小时
最后登录
2019-4-22
发表于 2019-2-9 22:37:52 | 显示全部楼层
楼主发贴辛苦了,谢谢楼主分享!我觉得中国高清论坛是注册对了!
回复 支持 反对

使用道具 举报

超级明星

高清币
2296
金钱
5599
鲜花
0
在线时间
866 小时
最后登录
2019-4-22
发表于 2019-2-9 22:44:08 | 显示全部楼层
楼主发贴辛苦了,谢谢楼主分享!我觉得中国高清论坛是注册对了!
回复 支持 反对

使用道具 举报

金鸡奖主角

高清币
1421
金钱
4623
鲜花
0
在线时间
413 小时
最后登录
2019-4-18
发表于 2019-2-9 22:44:29 | 显示全部楼层

其实我一直觉得楼主的品味不错!呵呵!中国高清论坛太棒了!
回复 支持 反对

使用道具 举报

superstar

高清币
3135
金钱
8428
鲜花
0
在线时间
851 小时
最后登录
2019-4-11
发表于 2019-2-9 22:54:21 | 显示全部楼层

其实我一直觉得楼主的品味不错!呵呵!中国高清论坛太棒了!
回复 支持 反对

使用道具 举报

VIP贵宾

高清币
7
金钱
3026
鲜花
0
在线时间
626 小时
最后登录
2019-4-22
发表于 2019-2-9 23:00:31 | 显示全部楼层
多謝 ! 給大家分享 !
回复 支持 反对

使用道具 举报

影坛巨星

高清币
446
金钱
9099
鲜花
0
在线时间
923 小时
最后登录
2019-4-21
发表于 2019-2-9 23:15:34 | 显示全部楼层

楼主太厉害了!楼主,电影应该很好看我觉得中国高清论坛真是个好地方!
回复 支持 反对

使用道具 举报

懒得打字嘛,点击右侧快捷回复 【右侧内容,后台自定义】
您需要登录后才可以回帖 登录 | 立即注册

本版积分规则

QQ|手机版|小黑屋|中国高清论坛 ( 黔ICP备16007815号-1 )

GMT+8, 2019-4-22 16:31 , Processed in 0.059857 second(s), 30 queries .

Powered by Discuz! X3.4

© 2001-2017 Comsenz Inc.

快速回复 返回顶部 返回列表