请选择 进入手机版 | 继续访问电脑版

中国高清论坛

 找回密码
 立即注册
搜索
查看: 1487|回复: 420

[动作片] 霸主/大君主之役(港) Overlord.2018.1080p.BluRay.x264.DTS-HD.MA.7.1-FGT 10.54 GiB

  [复制链接]

超级版主

高清币
15556
金钱
36285
鲜花
-88
在线时间
11409 小时
最后登录
2019-4-19
发表于 2019-2-10 09:20:03 | 显示全部楼层 |阅读模式


◎译  名 霸主/霸王行动/君主/大君主行动/大君主之役(港)
◎片  名 Overlord
◎年  代 2019
◎国  家 美国
◎类  别 动作/科幻/恐怖/战争
◎语  言 英语
◎IMDb评分 7.1/10 from 18,618 users
◎IMDB链接 https://www.imdb.com/title/tt4530422/
◎片  长 1 h 49 min
◎导  演 朱利叶斯·艾弗里 Julius Avery
◎主  演 约翰·艾德坡 Jovan Adepo
       怀亚特·罗素 Wyatt Russell
       马蒂尔德·奥利维耶 Mathilde Ollivier


◎简  介 

  诺曼底“霸王行动”前夕,美国伞兵深入敌人后方,执行一项对入侵的成功至关重要的任务。但当接近目标时,他们开始意识到,在这个纳粹占领的村庄里发生的事情比简单军事行动要复杂许多,他们将与超自然力量斗争,而这些是纳粹实验的一部分。
  1. Video
  2. ID : 1
  3. Format : AVC
  4. Format/Info : Advanced Video Codec
  5. Format profile : High@L4.1
  6. Format settings : CABAC / 5 Ref Frames
  7. Format settings, CABAC : Yes
  8. Format settings, ReFrames : 5 frames
  9. Codec ID : V_MPEG4/ISO/AVC
  10. Duration : 1 h 49 min
  11. Bit rate : 9 717 kb/s
  12. Width : 1 920 pixels
  13. Height : 800 pixels
  14. Display aspect ratio : 2.40:1
  15. Frame rate mode : Constant
  16. Frame rate : 23.976 (24000/1001) FPS
  17. Color space : YUV
  18. Chroma subsampling : 4:2:0
  19. Bit depth : 8 bits
  20. Scan type : Progressive
  21. Bits/(Pixel*Frame) : 0.264
  22. Stream size : 7.45 GiB (71%)
  23. Title : Overlord.2018.1080p.BluRay.x264.DTS-HD.MA.7.1-FGT
  24. Writing library : x264 core 157 r2935 545de2f
  25. Encoding settings : cabac=1 / ref=5 / deblock=1:-3:-3 / analyse=0x3:0x113 / me=umh / subme=8 / psy=1 / psy_rd=1.00:0.00 / mixed_ref=1 / me_range=16 / chroma_me=1 / trellis=1 / 8x8dct=1 / cqm=0 / deadzone=21,11 / fast_pskip=1 / chroma_qp_offset=-2 / threads=24 / lookahead_threads=4 / sliced_threads=0 / nr=0 / decimate=1 / interlaced=0 / bluray_compat=0 / constrained_intra=0 / bframes=3 / b_pyramid=2 / b_adapt=1 / b_bias=0 / direct=3 / weightb=1 / open_gop=0 / weightp=2 / keyint=250 / keyint_min=23 / scenecut=40 / intra_refresh=0 / rc_lookahead=50 / rc=2pass / mbtree=1 / bitrate=9717 / ratetol=1.0 / qcomp=0.60 / qpmin=0 / qpmax=69 / qpstep=4 / cplxblur=20.0 / qblur=0.5 / ip_ratio=1.40 / aq=1:1.00
  26. Language : English
  27. Default : Yes
  28. Forced : No

  29. Audio
  30. ID : 2
  31. Format : DTS XLL
  32. Format/Info : Digital Theater Systems
  33. Commercial name : DTS-HD Master Audio
  34. Codec ID : A_DTS
  35. Duration : 1 h 49 min
  36. Bit rate mode : Variable
  37. Bit rate : 4 021 kb/s
  38. Channel(s) : 8 channels
  39. Channel layout : C L R LFE Lb Rb Lss Rss
  40. Sampling rate : 48.0 kHz
  41. Frame rate : 93.750 FPS (512 SPF)
  42. Bit depth : 24 bits
  43. Compression mode : Lossless
  44. Stream size : 3.08 GiB (29%)
  45. Title : Overlord.2018.1080p.BluRay.x264.DTS-HD.MA.7.1-FGT
  46. Language : English
  47. Default : Yes
  48. Forced : No

  49. Text #1
  50. ID : 3
  51. Format : UTF-8
  52. Codec ID : S_TEXT/UTF8
  53. Codec ID/Info : UTF-8 Plain Text
  54. Duration : 1 h 4 min
  55. Bit rate : 4 b/s
  56. Count of elements : 91
  57. Stream size : 1.99 KiB (0%)
  58. Title : English-FORCED-SRT
  59. Language : English
  60. Default : Yes
  61. Forced : Yes

  62. Text #2
  63. ID : 4
  64. Format : UTF-8
  65. Codec ID : S_TEXT/UTF8
  66. Codec ID/Info : UTF-8 Plain Text
  67. Duration : 1 h 42 min
  68. Bit rate : 36 b/s
  69. Count of elements : 1034
  70. Stream size : 27.6 KiB (0%)
  71. Title : English-SRT
  72. Language : English
  73. Default : No
  74. Forced : No

  75. Text #3
  76. ID : 5
  77. Format : UTF-8
  78. Codec ID : S_TEXT/UTF8
  79. Codec ID/Info : UTF-8 Plain Text
  80. Duration : 1 h 42 min
  81. Bit rate : 49 b/s
  82. Count of elements : 1447
  83. Stream size : 37.0 KiB (0%)
  84. Title : English-SDH-SRT
  85. Language : English
  86. Default : No
  87. Forced : No

  88. Text #4
  89. ID : 6
  90. Format : PGS
  91. Muxing mode : zlib
  92. Codec ID : S_HDMV/PGS
  93. Codec ID/Info : Picture based subtitle format used on BDs/HD-DVDs
  94. Duration : 1 h 42 min
  95. Bit rate : 9 165 b/s
  96. Count of elements : 2034
  97. Stream size : 6.70 MiB (0%)
  98. Language : English
  99. Default : No
  100. Forced : No

  101. Menu
  102. 00:00:00.000 : en:Chapter 01
  103. 00:06:31.099 : en:Chapter 02
  104. 00:13:47.493 : en:Chapter 03
  105. 00:20:31.313 : en:Chapter 04
  106. 00:26:27.795 : en:Chapter 05
  107. 00:34:08.964 : en:Chapter 06
  108. 00:41:10.593 : en:Chapter 07
  109. 00:48:41.377 : en:Chapter 08
  110. 00:55:50.889 : en:Chapter 09
  111. 01:03:21.464 : en:Chapter 10
  112. 01:10:28.599 : en:Chapter 11
  113. 01:17:21.887 : en:Chapter 12
  114. 01:25:47.601 : en:Chapter 13
  115. 01:32:19.159 : en:Chapter 14
  116. 01:38:48.464 : en:Chapter 15
  117. 01:42:39.195 : en:Chapter 16
复制代码







游客,如果您要查看本帖隐藏内容请回复

回复

使用道具 举报

金鸡奖主角

高清币
2
金钱
6269
鲜花
0
在线时间
3119 小时
最后登录
2019-4-21
发表于 2019-2-10 09:24:08 | 显示全部楼层
楼主发贴辛苦了,谢谢楼主分享!我觉得中国高清论坛是注册对了!
昨天晚上没睡好,困!!
回复 支持 反对

使用道具 举报

天王巨星

高清币
370
金钱
2375
鲜花
0
在线时间
485 小时
最后登录
2019-4-21
发表于 2019-2-10 09:24:19 | 显示全部楼层
楼主发贴辛苦了,谢谢楼主分享!我觉得中国高清论坛是注册对了!
回复 支持 反对

使用道具 举报

影坛巨星

高清币
1128
金钱
9891
鲜花
0
在线时间
910 小时
最后登录
2019-4-21
发表于 2019-2-10 09:25:06 | 显示全部楼层

这个帖子不回对不起自己!我想我是一天也不能离开中国高清论坛
回复 支持 反对

使用道具 举报

影坛巨星

高清币
1048
金钱
8350
鲜花
0
在线时间
1999 小时
最后登录
2019-4-21
发表于 2019-2-10 09:25:13 手机频道 | 显示全部楼层
听说很不错,可惜没时间去影院
回复 支持 反对

使用道具 举报

超级明星

高清币
1230
金钱
7900
鲜花
0
在线时间
1539 小时
最后登录
2019-4-21
发表于 2019-2-10 09:27:50 | 显示全部楼层
楼主发贴辛苦了,谢谢楼主分享!我觉得中国高清论坛是注册对了!
回复 支持 反对

使用道具 举报

VIP贵宾

高清币
4111
金钱
11833
鲜花
0
在线时间
2972 小时
最后登录
2019-4-21
发表于 2019-2-10 09:28:30 | 显示全部楼层
廣東龍門馬到成功!謝謝樓主的無私發佈分享!
回复 支持 反对

使用道具 举报

影坛巨星

高清币
2409
金钱
8603
鲜花
0
在线时间
659 小时
最后登录
2019-4-21
发表于 2019-2-10 09:30:25 | 显示全部楼层
楼主发贴辛苦了,谢谢楼主分享!我觉得中国高清论坛是注册对了!
回复 支持 反对

使用道具 举报

影坛巨星

高清币
1202
金钱
8484
鲜花
0
在线时间
1952 小时
最后登录
2019-4-20
发表于 2019-2-10 09:33:42 | 显示全部楼层

楼主太厉害了!楼主,电影应该很好看我觉得中国高清论坛真是个好地方!
回复 支持 反对

使用道具 举报

superstar

高清币
5295
金钱
9825
鲜花
0
在线时间
1310 小时
最后登录
2019-4-21
发表于 2019-2-10 09:33:56 | 显示全部楼层
楼主发贴辛苦了,谢谢楼主分享!我觉得中国高清论坛是注册对了!
回复 支持 反对

使用道具 举报

懒得打字嘛,点击右侧快捷回复 【右侧内容,后台自定义】
您需要登录后才可以回帖 登录 | 立即注册

本版积分规则

QQ|手机版|小黑屋|中国高清论坛 ( 黔ICP备16007815号-1 )

GMT+8, 2019-4-21 18:32 , Processed in 0.048910 second(s), 28 queries .

Powered by Discuz! X3.4

© 2001-2017 Comsenz Inc.

快速回复 返回顶部 返回列表