请选择 进入手机版 | 继续访问电脑版

中国高清论坛

 找回密码
 立即注册
搜索
查看: 1254|回复: 276

[动作片] 霸主/大君主行动/大君主之役(港) Overlord.2018.BDRip.1080p.Rus.Sub 7.94 GiB

  [复制链接]

超级版主

高清币
15556
金钱
36285
鲜花
-88
在线时间
11409 小时
最后登录
2019-4-19
发表于 2019-2-11 22:22:41 | 显示全部楼层 |阅读模式


◎译  名 霸主/霸王行动/君主/大君主行动/大君主之役(港)
◎片  名 Overlord
◎年  代 2019
◎国  家 美国
◎类  别 动作/科幻/恐怖/战争
◎语  言 英语
◎IMDb评分 7.1/10 from 18,618 users
◎IMDB链接 https://www.imdb.com/title/tt4530422/
◎片  长 1 h 49 min
◎导  演 朱利叶斯·艾弗里 Julius Avery
◎主  演 约翰·艾德坡 Jovan Adepo
       怀亚特·罗素 Wyatt Russell
       马蒂尔德·奥利维耶 Mathilde Ollivier


◎简  介 

  诺曼底“霸王行动”前夕,美国伞兵深入敌人后方,执行一项对入侵的成功至关重要的任务。但当接近目标时,他们开始意识到,在这个纳粹占领的村庄里发生的事情比简单军事行动要复杂许多,他们将与超自然力量斗争,而这些是纳粹实验的一部分。
  1. Источник: Overlord.2018.1080p.BluRay.x264-FGT
  2. General
  3. Unique ID : 210491153123829278651971491021777932148 (0x9E5B1F19822A3F5BA18E40BE699A0F74)
  4. Complete name : Overlord.2018.BDRip.1080p.Rus.Sub.mkv
  5. Format : Matroska
  6. Format version : Version 4 / Version 2
  7. File size : 7.94 GiB
  8. Duration : 1 h 49 min
  9. Overall bit rate : 10.4 Mb/s
  10. Encoded date : UTC 2019-02-11 10:55:21
  11. Writing application : mkvmerge v7.1.0 ('Good Love') 64bit built on Jul 27 2014 13:06:55
  12. Writing library : libebml v1.3.0 + libmatroska v1.4.1

  13. Video
  14. ID : 1
  15. Format : AVC
  16. Format/Info : Advanced Video Codec
  17. Format profile : High@L4.1
  18. Format settings, CABAC : Yes
  19. Format settings, RefFrames : 5 frames
  20. Codec ID : V_MPEG4/ISO/AVC
  21. Duration : 1 h 49 min
  22. Bit rate : 9 717 kb/s
  23. Width : 1 920 pixels
  24. Height : 800 pixels
  25. Display aspect ratio : 2.40:1
  26. Frame rate mode : Constant
  27. Frame rate : 23.976 (24000/1001) FPS
  28. Color space : YUV
  29. Chroma subsampling : 4:2:0
  30. Bit depth : 8 bits
  31. Scan type : Progressive
  32. Bits/(Pixel*Frame) : 0.264
  33. Stream size : 7.45 GiB (94%)
  34. Writing library : x264 core 157 r2935 545de2f
  35. Encoding settings : cabac=1 / ref=5 / deblock=1:-3:-3 / analyse=0x3:0x113 / me=umh / subme=8 / psy=1 / psy_rd=1.00:0.00 / mixed_ref=1 / me_range=16 / chroma_me=1 / trellis=1 / 8x8dct=1 / cqm=0 / deadzone=21,11 / fast_pskip=1 / chroma_qp_offset=-2 / threads=24 / lookahead_threads=4 / sliced_threads=0 / nr=0 / decimate=1 / interlaced=0 / bluray_compat=0 / constrained_intra=0 / bframes=3 / b_pyramid=2 / b_adapt=1 / b_bias=0 / direct=3 / weightb=1 / open_gop=0 / weightp=2 / keyint=250 / keyint_min=23 / scenecut=40 / intra_refresh=0 / rc_lookahead=50 / rc=2pass / mbtree=1 / bitrate=9717 / ratetol=1.0 / qcomp=0.60 / qpmin=0 / qpmax=69 / qpstep=4 / cplxblur=20.0 / qblur=0.5 / ip_ratio=1.40 / aq=1:1.00
  36. Language : English
  37. Default : Yes
  38. Forced : No

  39. Audio
  40. ID : 2
  41. Format : AC-3
  42. Format/Info : Audio Coding 3
  43. Format settings, Endianness : Big
  44. Codec ID : A_AC3
  45. Duration : 1 h 49 min
  46. Bit rate mode : Constant
  47. Bit rate : 640 kb/s
  48. Channel(s) : 6 channels
  49. Channel positions : Front: L C R, Side: L R, LFE
  50. Sampling rate : 48.0 kHz
  51. Frame rate : 31.250 FPS (1536 SPF)
  52. Bit depth : 16 bits
  53. Compression mode : Lossy
  54. Stream size : 503 MiB (6%)
  55. Language : English
  56. Service kind : Complete Main
  57. Default : Yes
  58. Forced : No

  59. Text #1
  60. ID : 3
  61. Format : UTF-8
  62. Codec ID : S_TEXT/UTF8
  63. Codec ID/Info : UTF-8 Plain Text
  64. Duration : 1 h 42 min
  65. Bit rate : 59 b/s
  66. Count of elements : 1017
  67. Stream size : 45.0 KiB (0%)
  68. Title : MenInSub
  69. Language : Russian
  70. Default : Yes
  71. Forced : Yes

  72. Text #2
  73. ID : 4
  74. Format : UTF-8
  75. Codec ID : S_TEXT/UTF8
  76. Codec ID/Info : UTF-8 Plain Text
  77. Duration : 1 h 4 min
  78. Bit rate : 4 b/s
  79. Count of elements : 91
  80. Stream size : 1.99 KiB (0%)
  81. Title : Forced
  82. Language : English
  83. Default : No
  84. Forced : No

  85. Text #3
  86. ID : 5
  87. Format : UTF-8
  88. Codec ID : S_TEXT/UTF8
  89. Codec ID/Info : UTF-8 Plain Text
  90. Duration : 1 h 42 min
  91. Bit rate : 36 b/s
  92. Count of elements : 1034
  93. Stream size : 27.6 KiB (0%)
  94. Title : Full
  95. Language : English
  96. Default : No
  97. Forced : No

  98. Text #4
  99. ID : 6
  100. Format : UTF-8
  101. Codec ID : S_TEXT/UTF8
  102. Codec ID/Info : UTF-8 Plain Text
  103. Duration : 1 h 42 min
  104. Bit rate : 49 b/s
  105. Count of elements : 1447
  106. Stream size : 37.0 KiB (0%)
  107. Title : SDH
  108. Language : English
  109. Default : No
  110. Forced : No

  111. Menu
  112. 00:00:00.000 : en:Chapter 01
  113. 00:06:31.099 : en:Chapter 02
  114. 00:13:47.493 : en:Chapter 03
  115. 00:20:31.313 : en:Chapter 04
  116. 00:26:27.795 : en:Chapter 05
  117. 00:34:08.964 : en:Chapter 06
  118. 00:41:10.593 : en:Chapter 07
  119. 00:48:41.377 : en:Chapter 08
  120. 00:55:50.889 : en:Chapter 09
  121. 01:03:21.464 : en:Chapter 10
  122. 01:10:28.599 : en:Chapter 11
  123. 01:17:21.887 : en:Chapter 12
  124. 01:25:47.601 : en:Chapter 13
  125. 01:32:19.159 : en:Chapter 14
  126. 01:38:48.464 : en:Chapter 15
  127. 01:42:39.195 : en:Chapter 16
复制代码


游客,如果您要查看本帖隐藏内容请回复


回复

使用道具 举报

人气偶像

高清币
46
金钱
2089
鲜花
0
在线时间
944 小时
最后登录
2019-4-21
发表于 2019-2-11 22:26:51 | 显示全部楼层

这个帖子不回对不起自己!我想我是一天也不能离开中国高清论坛
回复 支持 反对

使用道具 举报

天王巨星

高清币
17
金钱
2906
鲜花
0
在线时间
726 小时
最后登录
2019-3-24
发表于 2019-2-11 22:32:14 | 显示全部楼层

楼主太厉害了!楼主,电影应该很好看我觉得中国高清论坛真是个好地方!
回复 支持 反对

使用道具 举报

跑龙套

高清币
13
金钱
17
鲜花
0
在线时间
0 小时
最后登录
2019-2-12
发表于 2019-2-11 22:34:13 | 显示全部楼层

少女汁源 很多资深老司机都在这 :www.82k.me   
回复 支持 反对

使用道具 举报

金鸡奖主角

高清币
273
金钱
2908
鲜花
0
在线时间
335 小时
最后登录
2019-3-23
发表于 2019-2-11 22:37:24 | 显示全部楼层

这东西我收了!谢谢楼主!中国高清论坛真好!
回复 支持 反对

使用道具 举报

永恒神话

高清币
15871
金钱
23752
鲜花
0
在线时间
584 小时
最后登录
2019-4-16
发表于 2019-2-11 22:40:08 | 显示全部楼层
楼主发贴辛苦了,谢谢楼主分享!我觉得中国高清论坛是注册对了!
回复 支持 反对

使用道具 举报

人气偶像

高清币
2
金钱
673
鲜花
0
在线时间
144 小时
最后登录
2019-4-21
发表于 2019-2-11 22:41:13 | 显示全部楼层
楼主发贴辛苦了,谢谢楼主分享!我觉得中国高清论坛是注册对了!
回复 支持 反对

使用道具 举报

人气偶像

高清币
182
金钱
1123
鲜花
0
在线时间
157 小时
最后登录
2019-4-13
发表于 2019-2-11 22:42:06 | 显示全部楼层

这个帖子不回对不起自己!我想我是一天也不能离开中国高清论坛
回复 支持 反对

使用道具 举报

人气偶像

高清币
6
金钱
1225
鲜花
0
在线时间
148 小时
最后登录
2019-4-17
发表于 2019-2-11 22:51:29 | 显示全部楼层
下载看看,感谢分享!
回复 支持 反对

使用道具 举报

懒得打字嘛,点击右侧快捷回复 【右侧内容,后台自定义】
您需要登录后才可以回帖 登录 | 立即注册

本版积分规则

QQ|手机版|小黑屋|中国高清论坛 ( 黔ICP备16007815号-1 )

GMT+8, 2019-4-21 18:06 , Processed in 0.051367 second(s), 29 queries .

Powered by Discuz! X3.4

© 2001-2017 Comsenz Inc.

快速回复 返回顶部 返回列表