请选择 进入手机版 | 继续访问电脑版

中国高清论坛

 找回密码
 立即注册
搜索
查看: 1036|回复: 205

[动作片] 马路大哥大 Asphaltgorillas.2018.720p.BluRay.x264-UNVEiL 7.65GB

  [复制链接]

龙行天下

高清币
33053
金钱
7152
鲜花
30
在线时间
1446 小时
最后登录
2019-4-12
发表于 2019-2-12 00:16:28 | 显示全部楼层 |阅读模式
p2536722892.jpg
◎译   名 马路大哥大
◎片   名 Asphaltgorillas
◎年   代 2018
◎产   地  德国
◎类   别  动作/喜剧/犯罪/剧情
◎语   言  德语/俄语/土耳其语/中文/英语
◎上映日期  2018-08-30(德国)
◎IMDb评分 6.0/10 from 176 users
◎IMDb链接 https://www.imdb.com/title/tt6175802/
◎片   长 103分钟
◎导   演 德特勒夫·布克 Detlev Buck
◎编   剧 Ferdinand von Schirach
◎主   演 艾拉·朗夫 Ella Rumpf/ 杰尼斯·纽沃纳 Jannis Niewöhner / 塞缪尔·施奈德 Samuel Schneider / 基达·拉马丹 Kida Khodr Ramadan/ 格奥尔格·弗里德里希 Georg Friedrich
◎简   介

阿特丽丝因他的老板的傀儡而饱受苦苦。他想赚一笔钱,不要再依赖于埃尔凯塔的强盗。当他的朋友弗兰克给他有利的交易时,阿特丽丝立即同意,绝对不知道这会导致什么样的混乱。。。。。。。

Video
ID : 1
Format : AVC
Format/Info : Advanced Video Codec
Format profile : High@L4.1
Format settings : CABAC / 5 Ref Frames
Format settings, CABAC : Yes
Format settings, ReFrames : 5 frames
Codec ID : V_MPEG4/ISO/AVC
Duration : 1 h 43 min
Bit rate : 4 545 kb/s
Width : 1 280 pixels
Height : 536 pixels
Display aspect ratio : 2.40:1
Frame rate mode : Constant
Frame rate : 24.000 FPS
Color space : YUV
Chroma subsampling : 4:2:0
Bit depth : 8 bits
Scan type : Progressive
Bits/(Pixel*Frame) : 0.276
Stream size : 3.28 GiB (75%)
Writing library : x264 core 155 r2901 7d0ff22
Encoding settings : cabac=1 / ref=5 / deblock=1:-2:-2 / analyse=0x3:0x113 / me=umh / subme=8 / psy=1 / psy_rd=1.00:0.00 / mixed_ref=1 / me_range=16 / chroma_me=1 / trellis=2 / 8x8dct=1 / cqm=0 / deadzone=21,11 / fast_pskip=1 / chroma_qp_offset=-2 / threads=17 / lookahead_threads=2 / sliced_threads=0 / nr=0 / decimate=1 / interlaced=0 / bluray_compat=0 / constrained_intra=0 / bframes=3 / b_pyramid=2 / b_adapt=2 / b_bias=0 / direct=3 / weightb=1 / open_gop=0 / weightp=2 / keyint=240 / keyint_min=24 / scenecut=40 / intra_refresh=0 / rc_lookahead=50 / rc=2pass / mbtree=1 / bitrate=4545 / ratetol=1.0 / qcomp=0.60 / qpmin=0 / qpmax=69 / qpstep=4 / cplxblur=20.0 / qblur=0.5 / ip_ratio=1.40 / aq=1:1.00
Language : English
Default : Yes
Forced : No

Audio
ID : 2
Format : DTS
Format/Info : Digital Theater Systems
Codec ID : A_DTS
Duration : 1 h 43 min
Bit rate mode : Constant
Bit rate : 1 509 kb/s
Channel(s) : 6 channels
Channel layout : C L R Ls Rs LFE
Sampling rate : 48.0 kHz
Frame rate : 93.750 FPS (512 SPF)
Bit depth : 24 bits
Compression mode : Lossy
Stream size : 1.09 GiB (25%)
Language : German
Default : Yes
Forced : No

Text
ID : 3
Format : UTF-8
Codec ID : S_TEXT/UTF8
Codec ID/Info : UTF-8 Plain Text
Duration : 1 h 36 min
Bit rate : 44 b/s
Count of elements : 1147
Stream size : 31.5 KiB (0%)
Language : English
Default : Yes
Forced : No

Menu
00:00:00.000 : en:00:00:00.000
00:06:15.500 : en:00:06:15.500
00:11:27.667 : en:00:11:27.667
00:17:07.917 : en:00:17:07.917
00:21:16.708 : en:00:21:16.708
00:26:38.750 : en:00:26:38.750
00:32:02.375 : en:00:32:02.375
00:39:18.125 : en:00:39:18.125
00:43:48.833 : en:00:43:48.833
00:51:10.417 : en:00:51:10.417
00:58:12.000 : en:00:58:12.000
01:06:10.250 : en:01:06:10.250
01:13:12.792 : en:01:13:12.792
01:18:50.208 : en:01:18:50.208
01:23:36.000 : en:01:23:36.000
01:30:22.292 : en:01:30:22.292
01:35:58.125 : en:01:35:58.125
01:39:53.792 : en:01:39:53.792

27865195541968243414_thumb.jpg
游客,如果您要查看本帖隐藏内容请回复

回复

使用道具 举报

永恒神话

高清币
43482
金钱
77849
鲜花
0
在线时间
1498 小时
最后登录
2019-4-22
发表于 2019-2-12 00:31:05 | 显示全部楼层
楼主发贴辛苦了,谢谢楼主分享!我觉得中国高清论坛是注册对了!
回复 支持 反对

使用道具 举报

永恒神话

高清币
43482
金钱
77849
鲜花
0
在线时间
1498 小时
最后登录
2019-4-22
发表于 2019-2-12 00:36:31 | 显示全部楼层

既然你诚信诚意的推荐了,那我就勉为其难的看看吧!中国高清论坛不走平凡路。
回复 支持 反对

使用道具 举报

超级明星

高清币
1975
金钱
8621
鲜花
0
在线时间
327 小时
最后登录
2019-4-22
发表于 2019-2-12 01:51:00 | 显示全部楼层
楼主发贴辛苦了,谢谢楼主分享!我觉得中国高清论坛是注册对了!
回复 支持 反对

使用道具 举报

超级明星

高清币
134
金钱
7073
鲜花
0
在线时间
1529 小时
最后登录
2019-3-24
发表于 2019-2-12 02:01:11 | 显示全部楼层
楼主发贴辛苦了,谢谢楼主分享!我觉得中国高清论坛是注册对了!
回复 支持 反对

使用道具 举报

金鸡奖主角

高清币
60
金钱
3627
鲜花
0
在线时间
460 小时
最后登录
2019-4-21
发表于 2019-2-12 02:37:24 | 显示全部楼层


高清资源下载区--720p、1080P高清MKV电影资源尽情下载
回复 支持 反对

使用道具 举报

金鸡奖主角

高清币
124
金钱
2908
鲜花
0
在线时间
200 小时
最后登录
2019-4-16
发表于 2019-2-12 03:04:21 | 显示全部楼层
感谢分享精彩好电影!!!
回复 支持 反对

使用道具 举报

人气偶像

高清币
212
金钱
539
鲜花
0
在线时间
46 小时
最后登录
2019-4-22
发表于 2019-2-12 05:20:22 | 显示全部楼层
楼主发贴辛苦了,谢谢楼主分享!我觉得中国高清论坛是注册对了!
回复 支持 反对

使用道具 举报

金鸡奖主角

高清币
339
金钱
3112
鲜花
0
在线时间
319 小时
最后登录
2019-4-22
发表于 2019-2-12 05:43:56 | 显示全部楼层

这东西我收了!谢谢楼主!中国高清论坛真好!
回复 支持 反对

使用道具 举报

金鸡奖主角

高清币
2
金钱
4101
鲜花
0
在线时间
1097 小时
最后登录
2019-4-22
发表于 2019-2-12 06:13:39 | 显示全部楼层
楼主发贴辛苦了,谢谢楼主分享!我觉得中国高清论坛是注册对了!
回复 支持 反对

使用道具 举报

懒得打字嘛,点击右侧快捷回复 【右侧内容,后台自定义】
您需要登录后才可以回帖 登录 | 立即注册

本版积分规则

QQ|手机版|小黑屋|中国高清论坛 ( 黔ICP备16007815号-1 )

GMT+8, 2019-4-22 16:46 , Processed in 0.207319 second(s), 29 queries .

Powered by Discuz! X3.4

© 2001-2017 Comsenz Inc.

快速回复 返回顶部 返回列表