请选择 进入手机版 | 继续访问电脑版

中国高清论坛

 找回密码
 立即注册
搜索
查看: 4597|回复: 1199

[犯罪片] 小偷家族 Manbiki.Kazoku.2018.WEBDL1080p-Unknown 4.54 GiB

  [复制链接]

超级版主

高清币
15557
金钱
36287
鲜花
-88
在线时间
11409 小时
最后登录
2019-4-19
发表于 2019-2-12 09:53:37 | 显示全部楼层 |阅读模式


◎译  名 小偷家族
◎片  名 Shoplifters/Une Affaire de Famille/Manbiki kazoku/万引き家族
◎年  代 2018
◎国  家 日本
◎类  别 犯罪/剧情
◎语  言 日语
◎IMDb评分 8.1/10 from 13,396 users
◎IMDB链接 https://www.imdb.com/title/tt8075192
◎片  长 2 h 0 min
◎导  演 是枝裕和 Hirokazu Koreeda
◎主  演 中川雅也 Lily Franky
       安藤樱 Sakura Andô
       松冈茉优 Mayu Matsuoka
       城桧吏 Jyo Kairi
       佐佐木美结 Miyu Sasaki

◎简  介 

  做短工的治(中川雅也饰)与妻子信代(安藤樱饰)、儿子祥太(城桧吏 饰)、信代的妹妹亚纪(松冈茉优饰)以及老母亲初枝(树木希林饰)依靠母亲的养老保险,在破烂的平房中艰难度日。治与儿子祥太做扒手,亚纪打工补贴家用。某一天,治带回在住宅区被冻僵的少女由里(佐佐木美雪 饰),加入了他们原本就贫困潦倒的家庭中。一件事打破了原本的平衡,每个人心中隐藏的秘密和愿望也逐渐明朗。

花絮

.本片在日本国内329块银幕上同时公映,首周初登场排名第一位,观众满意度排名第七位。首映前两日总共动员约36万人入场观看,票房收入约为4.45亿日元。

.是枝裕和凭借该片荣获第71届戛纳电影节金棕榈大奖,这是日本电影21年来首次获得该奖项。此前,是枝裕和曾七次征战戛纳。其《无人知晓》和《如父如子》分别拿过戛纳的最佳男主角奖和评委会大奖。

.荣获金棕榈大奖的日本电影总共有五部,分别为衣笠贞之助的《地狱门》(1953)、黑泽明的《影武者》(1981)、今村昌平的《楢山节考》(1983)和《鳗鱼》(1997),以及这次的《小偷家族》。

.此次是实力派女演员安藤樱第一次参演是枝裕和的影片,同时也是她生子后接拍的第一部电影。其实是枝裕和原打算找年龄更大一点的女演员的,但偶然和安藤樱在某城市邂逅,交谈过后决定启用安藤樱。

.影片有一场一家人在海边玩耍的戏,Lily Franky看过剧照后评价,“这简直就是贫穷版的《海街日记》。”

.接受警方审讯时,安藤樱有一场即兴表演,曾令演对手戏的池胁千鹤接招困难。Lily Franky高度评价,“这场戏最佳女主角奖没问题啊!”另外,安藤原本和松冈茉优有一场厮打的戏,但最后被删掉了。

.《小偷家族》获金棕榈,安藤樱也功不可没。评审团主席凯特·布兰切特采访中称,安藤樱那场悔恨的哭戏入木三分,简直成为表演范本,而且评审团中许多女性演员由此成为她的俘虏。

.还是这场哭戏,是枝裕和回忆拍摄时,其中一名副导演感叹“就凭这场戏,参加这部电影拍摄就有意义。”是枝导演则回忆当时自己的鸡皮疙瘩都起来了,难以相信安藤樱能把哭戏表现成这样。

.是枝裕和的作品中,素人小演员往往是影片的亮点。城桧吏被评价具有影帝柳乐优弥的气质。佐佐木美雪则是在视听时,因为吃薯片的样子超级搞笑而被是枝裕和一眼相中。当然,片中也有吃薯片的镜头。

.为了贴近饰演的角色,Lily Franky在开拍前还专门去日光浴沙龙去晒皮肤。然而等看到试映后,他痛感“皮肤不黑,晒得远远不够。”

.在与斯皮尔伯格洽谈翻拍《如父如子》事宜期间,斯皮尔曾专门询问是枝裕和,“Lily Franky究竟是什么人?演员吗?”是枝导演答道,“他是插画家,也写小品文,还搞戏剧,却独独不是演员。”

.是枝裕和谢绝了日本文部科学大臣林芳正的当面祝贺,他此前在博客中写道“电影曾服务‘国策’而招致不幸,通过反省,那么与公权保持距离不恰是正确之举吗?”

.另外,安倍晋三并未对《小偷家族》发表祝贺。

.首映式上,安藤樱语不惊人死不休,称Lily Franky是比自己“拥有更多人生经验的,每天都睡在一起的老狗。”

获奖记录

奥斯卡金像奖(2019;第91届)
提名
·奥斯卡奖-最佳外语片是枝裕和 Hirokazu Koreeda  


戛纳电影节(2018;第71届)
获奖
·金棕榈奖是枝裕和 Hirokazu Koreeda  

美国金球奖(2019;第76届)
提名
·电影类-最佳外语片

  1. Общее
  2. Уникальный идентификатор : 249495653014004335928326952658504399443 (0xBBB31D6AF721C085BD5C17597E663A53)
  3. Полное имя : E:TorrentManbikiKazokuWEBDL1080p.mkv
  4. Формат : Matroska
  5. Версия формата : Version 4 / Version 2
  6. Размер файла : 4,54 Гбайт
  7. Продолжительность : 2 ч. 0 м.
  8. Общий поток : 5388 Кбит/сек
  9. Дата кодирования : UTC 2019-02-11 20:31:37
  10. Программа кодирования : mkvmerge v9.5.0 ('Quiet Fire') 64bit
  11. Библиотека кодирования : libebml v1.3.4 + libmatroska v1.4.5

  12. Видео
  13. Идентификатор : 1
  14. Формат : AVC
  15. Формат/Информация : Advanced Video Codec
  16. Профиль формата : High@L4
  17. Настройки формата : CABAC / 4 Ref Frames
  18. Параметр CABAC формата : Да
  19. Параметр RefFrames формата : 4 кадра
  20. Идентификатор кодека : V_MPEG4/ISO/AVC
  21. Продолжительность : 2 ч. 0 м.
  22. Битрейт : 5194 Кбит/сек
  23. Ширина : 1920 пикселей
  24. Высота : 1080 пикселей
  25. Соотношение сторон : 16:9
  26. Режим частоты кадров : Постоянный
  27. Частота кадров : 24,000 кадра/сек
  28. Цветовое пространство : YUV
  29. Субдискретизация насыщенности : 4:2:0
  30. Битовая глубина : 8 бит
  31. Тип развёртки : Прогрессивная
  32. Бит/(Пиксели*Кадры) : 0.104
  33. Размер потока : 4,37 Гбайт (96%)
  34. Язык : English
  35. Default : Да
  36. Forced : Нет
  37. Цветовой диапазон : Limited
  38. Основные цвета : BT.709
  39. Характеристики трансфера : BT.709
  40. Коэффициенты матрицы : BT.709

  41. Аудио
  42. Идентификатор : 2
  43. Формат : AC-3
  44. Формат/Информация : Audio Coding 3
  45. Идентификатор кодека : A_AC3
  46. Продолжительность : 2 ч. 0 м.
  47. Вид битрейта : Постоянный
  48. Битрейт : 192 Кбит/сек
  49. Каналы : 2 канала
  50. Расположение каналов : Front: L R
  51. Частота : 48,0 КГц
  52. Частота кадров : 31,250 кадров/сек (1536 SPF)
  53. Битовая глубина : 16 бит
  54. Метод сжатия : С потерями
  55. Размер потока : 166 Мбайт (4%)
  56. Язык : Russian
  57. Default : Да
  58. Forced : Нет

  59. Меню
  60. 00:00:00.000 : en:Глава 1
  61. 00:04:45.083 : en:Глава 2
  62. 00:10:00.666 : en:Глава 3
  63. 00:16:50.541 : en:Глава 4
  64. 00:24:23.832 : en:Глава 5
  65. 00:29:48.623 : en:Глава 6
  66. 00:38:34.581 : en:Глава 7
  67. 00:43:41.747 : en:Глава 8
  68. 00:51:16.038 : en:Глава 9
  69. 01:00:45.246 : en:Глава 10
  70. 01:11:37.287 : en:Глава 11
  71. 01:15:55.495 : en:Глава 12
  72. 01:21:25.661 : en:Глава 13
  73. 01:26:39.869 : en:Глава 14
  74. 01:31:05.327 : en:Глава 15
  75. 01:38:43.285 : en:Глава 16
  76. 01:45:23.576 : en:Глава 17
  77. 01:53:39.326 : en:Глава 18
复制代码



游客,如果您要查看本帖隐藏内容请回复




回复

使用道具 举报

人气偶像

高清币
5
金钱
1117
鲜花
0
在线时间
181 小时
最后登录
2019-4-15
发表于 2019-2-12 11:35:09 | 显示全部楼层

我看不错噢 谢谢楼主!中国高清论坛越来越好!
回复 支持 2 反对 0

使用道具 举报

人气偶像

高清币
0
金钱
656
鲜花
0
在线时间
94 小时
最后登录
2019-3-11
发表于 2019-2-12 11:31:47 | 显示全部楼层

这东西我收了!谢谢楼主!中国高清论坛真好!
回复 支持 2 反对 0

使用道具 举报

永恒神话

高清币
9422
金钱
32229
鲜花
10
在线时间
2108 小时
最后登录
2019-4-21
发表于 2019-2-12 09:55:30 | 显示全部楼层
感谢分享精彩好电影!!!
回复 支持 反对

使用道具 举报

永恒神话

高清币
37239
金钱
73278
鲜花
0
在线时间
6048 小时
最后登录
2019-4-20
发表于 2019-2-12 09:56:43 | 显示全部楼层

楼主太厉害了!楼主,电影应该很好看我觉得中国高清论坛真是个好地方!
回复 支持 反对

使用道具 举报

知名艺人

高清币
9
金钱
659
鲜花
0
在线时间
141 小时
最后登录
2019-4-20
发表于 2019-2-12 09:57:43 | 显示全部楼层

楼主太厉害了!楼主,电影应该很好看我觉得中国高清论坛真是个好地方!
回复 支持 反对

使用道具 举报

天王巨星

高清币
40
金钱
2473
鲜花
0
在线时间
272 小时
最后登录
2019-3-24
发表于 2019-2-12 09:58:28 | 显示全部楼层
楼主发贴辛苦了,谢谢楼主分享!
回复 支持 反对

使用道具 举报

天王巨星

高清币
71
金钱
2371
鲜花
0
在线时间
962 小时
最后登录
2019-4-20
发表于 2019-2-12 09:59:29 | 显示全部楼层
楼主发贴辛苦了,谢谢楼主分享!我觉得中国高清论坛是注册对了!
回复 支持 反对

使用道具 举报

人气偶像

高清币
0
金钱
1957
鲜花
0
在线时间
1450 小时
最后登录
2019-4-20
发表于 2019-2-12 09:59:38 | 显示全部楼层
hhhhhhhhhhhhhhhhhhhhh
回复 支持 反对

使用道具 举报

超级明星

高清币
1792
金钱
5412
鲜花
0
在线时间
482 小时
最后登录
2019-4-16
发表于 2019-2-12 09:59:46 | 显示全部楼层

楼主,大恩不言谢了!中国高清论坛是最棒的!
回复 支持 反对

使用道具 举报

人气偶像

高清币
0
金钱
1957
鲜花
0
在线时间
1450 小时
最后登录
2019-4-20
发表于 2019-2-12 10:00:01 | 显示全部楼层
hhhhhhhhhhhhhhhhhhhhhh
回复 支持 反对

使用道具 举报

懒得打字嘛,点击右侧快捷回复 【右侧内容,后台自定义】
您需要登录后才可以回帖 登录 | 立即注册

本版积分规则

QQ|手机版|小黑屋|中国高清论坛 ( 黔ICP备16007815号-1 )

GMT+8, 2019-4-21 03:08 , Processed in 0.114119 second(s), 30 queries .

Powered by Discuz! X3.4

© 2001-2017 Comsenz Inc.

快速回复 返回顶部 返回列表