请选择 进入手机版 | 继续访问电脑版

中国高清论坛

 找回密码
 立即注册
搜索
查看: 1190|回复: 205

[喜剧片] 安娜和世界末日 2017.720p.AMZN.WEBRip.DDP5.1.x264-NTG 2.74GB

  [复制链接]

龙行天下

高清币
33117
金钱
7152
鲜花
30
在线时间
1446 小时
最后登录
2019-4-12
发表于 2019-2-12 20:54:06 | 显示全部楼层 |阅读模式
6a99122228cd8cb32756f05a9c6c3f42.jpg

◎译  名 安娜和世界末日 / 安娜与末世
◎片  名 Anna and the Apocalypse
◎年  代 2017
◎产  地 美国 / 英国
◎类  别 喜剧 / 恐怖 / 歌舞
◎语  言 英语
◎上映日期 2017-09-22(奇幻电影节) / 2018-11-29(澳大利亚)
◎IMDb评分 6.2/10 from 2620 users
◎豆瓣评分 6.0/10 from 285 users
◎片  长 93分钟
◎导  演 约翰·迈克菲尔 John McPhail
◎编  剧 艾伦·迈克唐纳 Alan McDonald / 莱恩·迈克亨利 Ryan McHenry
◎主  演 艾拉·亨特 Ella Hunt
      Malcolm Cumming
      Sarah Swire
      Christopher Leveaux
      Ben Wiggins
      Marli Siu
      马克·本顿 Mark Benton
      保罗·凯耶 Paul Kaye
      Ella Jarvis
      Calum Cormack



◎简  介  

  一部混杂音乐剧和丧尸电影的喜剧片,这部僵尸歌舞片的框架基于2010年英国电影学院奖获奖短片《僵尸音乐剧》(ZombieMusical)。讲述了一大波僵尸穷追猛打一撮人,他们边唱边打,不断求生的故事。电影取景地为苏格兰,由艾拉·亨特出演安娜,马克·本顿饰演安娜的父 亲,保罗·凯耶出演反派。

Video
ID : 1
Format : AVC
Format/Info : Advanced Video Codec
Format profile : High@L3.1
Format settings : CABAC / 4 Ref Frames
Format settings, CABAC : Yes
Format settings, ReFrames : 4 frames
Codec ID : V_MPEG4/ISO/AVC
Duration : 1 h 32 min
Bit rate mode : Constant
Bit rate : 3 575 kb/s
Nominal bit rate : 6 000 kb/s
Width : 1 280 pixels
Height : 544 pixels
Display aspect ratio : 2.35:1
Original display aspect ratio : 2.35:1
Frame rate mode : Constant
Frame rate : 23.976 (24000/1001) FPS
Color space : YUV
Chroma subsampling : 4:2:0
Bit depth : 8 bits
Scan type : Progressive
Bits/(Pixel*Frame) : 0.214
Stream size : 2.32 GiB (85%)
Default : Yes
Forced : No
Color range : Limited
Color primaries : BT.709
Transfer characteristics : BT.709
Matrix coefficients : BT.709

Audio
ID : 2
Format : E-AC-3
Format/Info : Enhanced AC-3
Commercial name : Dolby Digital Plus
Codec ID : A_EAC3
Duration : 1 h 32 min
Bit rate mode : Constant
Bit rate : 640 kb/s
Channel(s) : 6 channels
Channel layout : L R C LFE Ls Rs
Sampling rate : 48.0 kHz
Frame rate : 31.250 FPS (1536 SPF)
Compression mode : Lossy
Stream size : 425 MiB (15%)
Language : English
Service kind : Complete Main
Default : Yes
Forced : No

74c1c22cbf1c0f9e77b37401d02f711a.jpg 746ca1afdb8a5aa10506ace287158a97.jpg
游客,如果您要查看本帖隐藏内容请回复
回复

使用道具 举报

超级明星

高清币
1234
金钱
7910
鲜花
0
在线时间
1541 小时
最后登录
2019-4-24
发表于 2019-2-12 20:54:34 | 显示全部楼层
楼主发贴辛苦了,谢谢楼主分享!我觉得中国高清论坛是注册对了!
回复 支持 反对

使用道具 举报

金鸡奖主角

高清币
11
金钱
4495
鲜花
0
在线时间
1228 小时
最后登录
2019-4-25
发表于 2019-2-12 20:57:57 | 显示全部楼层

其实我一直觉得楼主的品味不错!呵呵!中国高清论坛太棒了!
回复 支持 反对

使用道具 举报

天王巨星

高清币
408
金钱
2257
鲜花
0
在线时间
199 小时
最后登录
2019-3-24
发表于 2019-2-12 21:02:36 | 显示全部楼层
谢谢楼主分享
回复 支持 反对

使用道具 举报

禁止发言

高清币
18
金钱
22
鲜花
0
在线时间
0 小时
最后登录
2019-2-13
发表于 2019-2-12 21:02:46 | 显示全部楼层
提示: 作者被禁止或删除 内容自动屏蔽
回复 支持 反对

使用道具 举报

人气偶像

高清币
24
金钱
726
鲜花
0
在线时间
179 小时
最后登录
2019-4-19
发表于 2019-2-12 21:08:44 | 显示全部楼层
回帖后跳转到最后一页
回复 支持 反对

使用道具 举报

金鸡奖主角

高清币
104
金钱
5109
鲜花
0
在线时间
1320 小时
最后登录
2019-4-23
发表于 2019-2-12 21:10:09 | 显示全部楼层
楼主发贴辛苦了,谢谢楼主分享!我觉得中国高清论坛是注册对了!
回复 支持 反对

使用道具 举报

superstar

高清币
4173
金钱
7384
鲜花
0
在线时间
529 小时
最后登录
2019-3-24
发表于 2019-2-12 21:10:18 | 显示全部楼层

楼主发贴辛苦了,谢谢楼主分享!

回复 支持 反对

使用道具 举报

超级明星

高清币
2345
金钱
4970
鲜花
0
在线时间
1719 小时
最后登录
2019-4-24
发表于 2019-2-12 21:11:15 | 显示全部楼层
楼主发贴辛苦了,谢谢楼主分享!我觉得中国高清论坛是注册对了!
回复 支持 反对

使用道具 举报

金鸡奖主角

高清币
1050
金钱
2753
鲜花
0
在线时间
263 小时
最后登录
2019-4-24
发表于 2019-2-12 21:18:21 | 显示全部楼层
楼主发贴辛苦了,谢谢楼主分享!我觉得中国高清论坛是注册对了!
回复 支持 反对

使用道具 举报

懒得打字嘛,点击右侧快捷回复 【右侧内容,后台自定义】
您需要登录后才可以回帖 登录 | 立即注册

本版积分规则

QQ|手机版|小黑屋|中国高清论坛 ( 黔ICP备16007815号-1 )

GMT+8, 2019-4-25 10:25 , Processed in 0.059497 second(s), 29 queries .

Powered by Discuz! X3.4

© 2001-2017 Comsenz Inc.

快速回复 返回顶部 返回列表