请选择 进入手机版 | 继续访问电脑版

中国高清论坛

 找回密码
 立即注册
搜索
查看: 928|回复: 152

[犯罪片] 伦敦场地 London.Fields.2018.720p.AMZN.WEBRip.DDP5.1.x264-NTG 3.5GB

  [复制链接]

龙行天下

高清币
33135
金钱
7152
鲜花
30
在线时间
1446 小时
最后登录
2019-4-12
发表于 2019-2-12 21:09:02 | 显示全部楼层 |阅读模式
4f2452b7d235004b0ae2b6356ce86e38.jpg
◎译  名 伦敦场地
◎片  名 London Fields
◎年  代 2018
◎产  地 美国
◎类  别 悬疑 / 惊悚 / 犯罪
◎语  言 英语
◎上映日期 2018-10-26(美国)
◎IMDb评分 4.5/10 from 825 users
◎豆瓣评分 5.8/10 from 99 users
◎片  长 118分钟
◎导  演 马提·卡伦 Mathew Cullen
◎编  剧 马丁·艾米斯 Martin Amis / Roberta Hanley
◎主  演 提奥·詹姆斯 Theo James
      约翰尼·德普 Johnny Depp
      安布尔·赫德 Amber Heard
      卡拉·迪瓦伊 Cara Delevingne
      比利·鲍伯·松顿 Billy Bob Thornton
      杰米·亚历山大 Jaimie Alexander
      吉姆·斯特吉斯 Jim Sturgess
      詹森·艾萨克 Jason Isaacs
      嘉玛·陈 Gemma Chan
      莉莉·科尔 Lily Cole
      詹妮弗·米索妮 Jennifer Missoni
      克雷格·加纳 Craig Garner
      Hon Ping Tang
      Alexandra Evans
      Stephen McDade



◎简  介  

  电影根据 Martin Amis 1989年出版的同名小说改编,讲述洞察力十足的女主人公Nicola Six 预感到有人要谋杀自己,她展开了一段多角的恋情,周旋于三个男人之中,因为她知道这三人当中的其中一人就是想要谋杀她的凶手!

◎获奖情况  

  第39届金酸莓奖(2019)
  最差女主角(提名) 艾梅柏·希尔德

Video
ID : 1
Format : AVC
Format/Info : Advanced Video Codec
Format profile : High@L3.1
Format settings : CABAC / 4 Ref Frames
Format settings, CABAC : Yes
Format settings, ReFrames : 4 frames
Codec ID : V_MPEG4/ISO/AVC
Duration : 1 h 47 min
Bit rate mode : Constant
Bit rate : 4 052 kb/s
Nominal bit rate : 6 000 kb/s
Width : 1 248 pixels
Height : 520 pixels
Display aspect ratio : 2.40:1
Frame rate mode : Constant
Frame rate : 23.976 (24000/1001) FPS
Color space : YUV
Chroma subsampling : 4:2:0
Bit depth : 8 bits
Scan type : Progressive
Bits/(Pixel*Frame) : 0.260
Stream size : 3.04 GiB (86%)
Default : Yes
Forced : No
Color range : Limited
Color primaries : BT.709
Transfer characteristics : BT.709
Matrix coefficients : BT.709

Audio
ID : 2
Format : E-AC-3
Format/Info : Enhanced AC-3
Commercial name : Dolby Digital Plus
Codec ID : A_EAC3
Duration : 1 h 47 min
Bit rate mode : Constant
Bit rate : 640 kb/s
Channel(s) : 6 channels
Channel layout : L R C LFE Ls Rs
Sampling rate : 48.0 kHz
Frame rate : 31.250 FPS (1536 SPF)
Compression mode : Lossy
Stream size : 492 MiB (14%)
Language : English
Service kind : Complete Main
Default : Yes
Forced : No

Text
ID : 3
Format : UTF-8
Codec ID : S_TEXT/UTF8
Codec ID/Info : UTF-8 Plain Text
Duration : 1 h 47 min
Bit rate : 56 b/s
Count of elements : 1645
Stream size : 44.7 KiB (0%)
Title : SDH
Language : English
Default : No
Forced : No

a2de6503cbc629e3eb0711024f987500.jpg 5f6df6c223a560b138d4cdc58179983e.jpg
游客,如果您要查看本帖隐藏内容请回复

回复

使用道具 举报

禁止发言

高清币
18
金钱
22
鲜花
0
在线时间
0 小时
最后登录
2019-2-13
发表于 2019-2-12 22:30:25 | 显示全部楼层
提示: 作者被禁止或删除 内容自动屏蔽
回复 支持 1 反对 0

使用道具 举报

金鸡奖主角

高清币
989
金钱
2012
鲜花
0
在线时间
228 小时
最后登录
2019-4-5
发表于 2019-2-12 21:56:06 | 显示全部楼层
楼主发贴辛苦了,谢谢楼主分享!我觉得中国高清论坛是注册对了!
回复 支持 1 反对 0

使用道具 举报

金鸡奖主角

高清币
866
金钱
3081
鲜花
0
在线时间
409 小时
最后登录
2019-4-24
发表于 2019-2-12 21:55:48 | 显示全部楼层
楼主发贴辛苦了,谢谢楼主分享!我觉得中国高清论坛是注册对了!
回复 支持 1 反对 0

使用道具 举报

好莱坞明星

高清币
1796
金钱
5717
鲜花
0
在线时间
720 小时
最后登录
2019-4-25
发表于 2019-2-12 21:10:20 | 显示全部楼层
楼主发贴辛苦了,谢谢楼主分享!我觉得中国高清论坛是注册对了!
回复 支持 反对

使用道具 举报

天王巨星

高清币
501
金钱
1542
鲜花
0
在线时间
243 小时
最后登录
2019-4-23
发表于 2019-2-12 21:10:55 | 显示全部楼层
楼主发贴辛苦了,谢谢楼主分享
回复 支持 反对

使用道具 举报

人气偶像

高清币
6
金钱
1487
鲜花
0
在线时间
260 小时
最后登录
2019-4-24
发表于 2019-2-12 21:18:53 | 显示全部楼层
楼主发贴辛苦了,谢谢楼主分享!我觉得中国高清论坛是注册对了!
回复 支持 反对

使用道具 举报

知名艺人

高清币
3
金钱
319
鲜花
0
在线时间
46 小时
最后登录
2019-3-3
发表于 2019-2-12 21:22:19 | 显示全部楼层

楼主太厉害了!楼主,电影应该很好看我觉得中国高清论坛真是个好地方!
回复 支持 反对

使用道具 举报

永恒神话

高清币
305
金钱
16166
鲜花
0
在线时间
1108 小时
最后登录
2019-4-25
发表于 2019-2-12 21:22:20 | 显示全部楼层

这东西我收了!谢谢楼主!中国高清论坛真好!
回复 支持 反对

使用道具 举报

永恒神话

高清币
15865
金钱
23746
鲜花
0
在线时间
584 小时
最后登录
2019-4-16
发表于 2019-2-12 21:26:28 | 显示全部楼层
楼主发贴辛苦了,谢谢楼主分享!我觉得中国高清论坛是注册对了!
回复 支持 反对

使用道具 举报

人气偶像

高清币
7
金钱
1436
鲜花
0
在线时间
248 小时
最后登录
2019-4-6
发表于 2019-2-12 21:31:23 | 显示全部楼层
感谢分享佳片!
回复 支持 反对

使用道具 举报

跑龙套

高清币
8
金钱
91
鲜花
0
在线时间
11 小时
最后登录
2019-4-1
发表于 2019-2-12 21:36:25 | 显示全部楼层
论坛很棒,楼主辛苦
回复 支持 反对

使用道具 举报

金鸡奖主角

高清币
166
金钱
3331
鲜花
0
在线时间
377 小时
最后登录
2019-4-24
发表于 2019-2-12 21:37:35 | 显示全部楼层

这个帖子不回对不起自己!我想我是一天也不能离开中国高清论坛
回复 支持 反对

使用道具 举报

懒得打字嘛,点击右侧快捷回复 【右侧内容,后台自定义】
您需要登录后才可以回帖 登录 | 立即注册

本版积分规则

QQ|手机版|小黑屋|中国高清论坛 ( 黔ICP备16007815号-1 )

GMT+8, 2019-4-25 16:00 , Processed in 0.060259 second(s), 30 queries .

Powered by Discuz! X3.4

© 2001-2017 Comsenz Inc.

快速回复 返回顶部 返回列表