请选择 进入手机版 | 继续访问电脑版

中国高清论坛

 找回密码
 立即注册
搜索
查看: 1107|回复: 189

[爱情片] 真爱永存 The.Unicorn.2018.1080p.AMZN.WEBRip.DDP5.1.x264-monkee 4.9GB

  [复制链接]

龙行天下

高清币
32925
金钱
7152
鲜花
30
在线时间
1446 小时
最后登录
2019-4-12
发表于 2019-2-12 21:27:33 | 显示全部楼层 |阅读模式
d891b3ad13196f36a22dd7d18b3f900b.jpg

◎译  名 真爱永存
◎片  名 The Unicorn
◎年  代 2018
◎产  地 美国
◎类  别 喜剧 / 爱情
◎语  言 英语
◎上映日期 2018-03-10(西南偏南电影节)
◎IMDb评分 5.4/10 from 211 users
◎片  长 90分钟
◎导  演 罗伯特·舒瓦兹曼 Robert Schwartzman
◎主  演 劳伦·拉普库斯 Lauren Lapkus
      Nicholas Rutherford
      露西·海尔 Lucy Hale
      贝克·班尼特 Beck Bennett
      德丽·海明威 Dree Hemingway
      比佛莉·德安姬罗 Beverly D'Angelo
      约翰·卡普洛斯 John Kapelos
      玛雅·卡赞 Maya Kazan
      达雷尔·布里特-吉布森 Darrell Britt-Gibson
      凯尔·穆尼 Kyle Mooney



◎简  介  

  迦勒和马洛里是一对已经订婚的情侣,他们被迫在周末前往棕榈泉,参加马洛里父母第 25 次重申婚礼誓言的典礼。这对逐渐疏远的情侣发现了马洛里父母保持幸福婚姻的秘密,也就是让第三者加入他们的性生活。迦勒和马洛里一开始对此感到十分厌恶,但对这种方式能否改善两人关系而感到好奇。 为了庆祝两人再次订婚,他们度过了一个狂野的夜晚,不设任何条件地寻找他们的第三者。这次经历虽然新鲜有趣,但却揭露出两人之间更深层次的问题,并威胁到他们的未来。

Video
ID : 1
Format : AVC
Format/Info : Advanced Video Codec
Format profile : High@L4
Format settings : CABAC / 4 Ref Frames
Format settings, CABAC : Yes
Format settings, ReFrames : 4 frames
Codec ID : V_MPEG4/ISO/AVC
Duration : 1 h 29 min
Bit rate mode : Constant
Bit rate : 7 182 kb/s
Nominal bit rate : 10 000 kb/s
Width : 1 920 pixels
Height : 816 pixels
Display aspect ratio : 2.35:1
Frame rate mode : Constant
Frame rate : 23.976 (24000/1001) FPS
Color space : YUV
Chroma subsampling : 4:2:0
Bit depth : 8 bits
Scan type : Progressive
Bits/(Pixel*Frame) : 0.191
Stream size : 4.50 GiB (92%)
Default : Yes
Forced : No
Color range : Limited
Color primaries : BT.709
Transfer characteristics : BT.709
Matrix coefficients : BT.709

Audio
ID : 2
Format : E-AC-3
Format/Info : Enhanced AC-3
Commercial name : Dolby Digital Plus
Codec ID : A_EAC3
Duration : 1 h 29 min
Bit rate mode : Constant
Bit rate : 640 kb/s
Channel(s) : 6 channels
Channel layout : L R C LFE Ls Rs
Sampling rate : 48.0 kHz
Frame rate : 31.250 FPS (1536 SPF)
Compression mode : Lossy
Stream size : 410 MiB (8%)
Language : English
Service kind : Complete Main
Default : Yes
Forced : No

Text #1
ID : 3
Format : UTF-8
Codec ID : S_TEXT/UTF8
Codec ID/Info : UTF-8 Plain Text
Duration : 1 h 28 min
Bit rate : 94 b/s
Count of elements : 1993
Stream size : 61.7 KiB (0%)
Language : English
Default : No
Forced : No

Text #2
ID : 4
Format : UTF-8
Codec ID : S_TEXT/UTF8
Codec ID/Info : UTF-8 Plain Text
Duration : 1 h 28 min
Bit rate : 101 b/s
Count of elements : 2129
Stream size : 66.1 KiB (0%)
Title : SDH
Language : English
Default : No
Forced : No

f19714588b75a49bf7395485ee168335.jpg 7cd6c03772aa124287f4455f6117f971.jpg
游客,如果您要查看本帖隐藏内容请回复

回复

使用道具 举报

禁止发言

高清币
18
金钱
22
鲜花
0
在线时间
0 小时
最后登录
2019-2-13
发表于 2019-2-12 22:30:43 | 显示全部楼层
提示: 作者被禁止或删除 内容自动屏蔽
回复 支持 1 反对 0

使用道具 举报

金鸡奖主角

高清币
1194
金钱
2248
鲜花
0
在线时间
292 小时
最后登录
2019-4-17
发表于 2019-2-12 21:52:46 | 显示全部楼层
楼主发贴辛苦了,谢谢楼主分享!我觉得中国高清论坛是注册对了!
回复 支持 1 反对 0

使用道具 举报

人气偶像

高清币
42
金钱
1384
鲜花
0
在线时间
68 小时
最后登录
2019-2-12
发表于 2019-2-12 21:39:23 | 显示全部楼层

楼主太厉害了!楼主,电影应该很好看我觉得中国高清论坛真是个好地方!
回复 支持 1 反对 0

使用道具 举报

知名艺人

高清币
16
金钱
339
鲜花
0
在线时间
33 小时
最后登录
2019-2-21
发表于 2019-2-12 21:30:25 | 显示全部楼层

其实我一直觉得楼主的品味不错!呵呵!中国高清论坛太棒了!
回复 支持 反对

使用道具 举报

人气偶像

高清币
42
金钱
1384
鲜花
0
在线时间
68 小时
最后登录
2019-2-12
发表于 2019-2-12 21:42:42 | 显示全部楼层

这个帖子不回对不起自己!我想我是一天也不能离开中国高清论坛
回复 支持 反对

使用道具 举报

永恒神话

高清币
37235
金钱
73250
鲜花
0
在线时间
6048 小时
最后登录
2019-4-19
发表于 2019-2-12 21:51:32 | 显示全部楼层
楼主发贴辛苦了,谢谢楼主分享!我觉得中国高清论坛是注册对了!
回复 支持 反对

使用道具 举报

好莱坞明星

高清币
2199
金钱
4307
鲜花
0
在线时间
1138 小时
最后登录
2019-4-18
发表于 2019-2-12 21:53:58 | 显示全部楼层

楼主太厉害了!楼主,电影应该很好看我觉得中国高清论坛真是个好地方!
回复 支持 反对

使用道具 举报

天王巨星

高清币
1016
金钱
1382
鲜花
0
在线时间
162 小时
最后登录
2019-4-18
发表于 2019-2-12 21:54:57 | 显示全部楼层
多謝 ! 給大家分享 !

回复 支持 反对

使用道具 举报

永恒神话

高清币
9411
金钱
32189
鲜花
10
在线时间
2097 小时
最后登录
2019-4-18
发表于 2019-2-12 21:58:23 | 显示全部楼层
感谢分享精彩好电影!!!
回复 支持 反对

使用道具 举报

人气偶像

高清币
614
金钱
925
鲜花
0
在线时间
120 小时
最后登录
2019-4-9
发表于 2019-2-12 22:07:38 | 显示全部楼层
感谢楼主的分享 感谢中国高清论坛
回复 支持 反对

使用道具 举报

懒得打字嘛,点击右侧快捷回复 【右侧内容,后台自定义】
您需要登录后才可以回帖 登录 | 立即注册

本版积分规则

QQ|手机版|小黑屋|中国高清论坛 ( 黔ICP备16007815号-1 )

GMT+8, 2019-4-19 06:48 , Processed in 0.098277 second(s), 30 queries .

Powered by Discuz! X3.4

© 2001-2017 Comsenz Inc.

快速回复 返回顶部 返回列表