请选择 进入手机版 | 继续访问电脑版

中国高清论坛

 找回密码
 立即注册
搜索
查看: 1331|回复: 205

[剧情片] 超乎想象/想更认识你(港) I.Can.Only.Imagine.2018.Lic.BDRip.1080p.seleZen

  [复制链接]

超级版主

高清币
15557
金钱
36287
鲜花
-88
在线时间
11409 小时
最后登录
2019-4-19
发表于 2019-2-12 22:36:52 | 显示全部楼层 |阅读模式


◎译  名 超乎想象/梦想心乐章(台)/想更认识你(港)
◎片  名 I Can Only Imagine
◎年  代 2018
◎国  家 美国
◎类  别 剧情/音乐
◎语  言 英语...
◎字  幕 英文
◎IMDb评分 7.5/10 from 4,825 users
◎IMDB链接 http://www.imdb.com/title/tt6450186
◎文件格式 x264 + DTS
◎视频尺寸 1920 x 806
◎文件大小 11.12 GiB
◎片  长 1h 50mn
◎导  演 安德鲁·欧文 Andrew Erwin
      乔恩·欧文 Jon Erwin
◎主  演 J·迈克尔·芬利 J. Michael Finley
      布洛迪·罗斯 Brody Rose
      丹尼斯·奎德 Dennis Quaid
      玛德琳·卡罗尔 Madeline Carroll
      塔根·伯恩斯 Taegen Burns
      特雷斯·阿德金斯 Trace Adkins
      杰森·伯基 Jason Burkey
      克劳斯·利特曼 Cloris Leachman
      坦娅·克拉克 Tanya Clarke
      罗达·格里菲丝 Rhoda Griffis
      吉娜·西蒙 Gianna Simone
      妮可儿·德伯特 Nicole DuPort
      普里西拉·C·夏勒 Priscilla C. Shirer
      凯文·道恩斯 Kevin Downes
      大卫·诺罗纳 David Norona
      马克·罗伯特·埃利斯 Mark Robert Ellis
      欧谢·布鲁克斯 O'Shay Brooks

◎简  介

  根据基督教乐队MercyMe主唱Bart Millard的真实故事改编,讲述了Bart的父亲因癌症去世而激发他创作出经典歌曲《超乎想象》的故事。




  1. General
  2. Unique ID : 209454792799051245671649694682864234492 (0x9D9386973496B3103A5DCB1229D12FFC)
  3. Complete name : D:Video111I.Can.Only.Imagine.2018.Lic.BDRip.1080p.seleZen.mkv
  4. Format : Matroska
  5. Format version : Version 4
  6. File size : 11.2 GiB
  7. Duration : 1 h 50 min
  8. Overall bit rate : 14.5 Mb/s
  9. Movie name : I Can Only Imagine 2018 from селезень
  10. Encoded date : UTC 2019-02-12 13:45:12
  11. Writing application : mkvmerge v29.0.0 ('Like It Or Not') 64-bit
  12. Writing library : libebml v1.3.6 + libmatroska v1.4.9

  13. Video
  14. ID : 1
  15. Format : AVC
  16. Format/Info : Advanced Video Codec
  17. Format profile : High@L4.1
  18. Format settings : CABAC / 4 Ref Frames
  19. Format settings, CABAC : Yes
  20. Format settings, ReFrames : 4 frames
  21. Codec ID : V_MPEG4/ISO/AVC
  22. Duration : 1 h 50 min
  23. Bit rate : 12.5 Mb/s
  24. Width : 1 920 pixels
  25. Height : 806 pixels
  26. Display aspect ratio : 2.40:1
  27. Frame rate mode : Constant
  28. Frame rate : 23.976 (24000/1001) FPS
  29. Color space : YUV
  30. Chroma subsampling : 4:2:0
  31. Bit depth : 8 bits
  32. Scan type : Progressive
  33. Bits/(Pixel*Frame) : 0.338
  34. Stream size : 9.66 GiB (86%)
  35. Writing library : x264 core 155 r2867+74 66b5600 t_mod_Custom_2 [8-bit@all X86_64]
  36. Encoding settings : cabac=1 / ref=4 / deblock=1:-3:-3 / analyse=0x3:0x113 / me=umh / subme=10 / psy=1 / fade_compensate=0.00 / psy_rd=0.90:0.10 / mixed_ref=1 / me_range=48 / chroma_me=1 / trellis=2 / 8x8dct=1 / cqm=0 / deadzone=21,11 / fast_pskip=0 / chroma_qp_offset=-2 / threads=18 / lookahead_threads=3 / sliced_threads=0 / nr=0 / decimate=1 / interlaced=0 / bluray_compat=0 / constrained_intra=0 / fgo=0 / bframes=8 / b_pyramid=2 / b_adapt=2 / b_bias=0 / direct=3 / weightb=1 / open_gop=0 / weightp=2 / keyint=250 / keyint_min=23 / scenecut=40 / intra_refresh=0 / rc_lookahead=40 / rc=crf / mbtree=0 / crf=20.0000 / qcomp=0.70 / qpmin=0:0:0 / qpmax=69:69:69 / qpstep=4 / vbv_maxrate=35000 / vbv_bufsize=35000 / crf_max=0.0 / nal_hrd=none / filler=0 / ip_ratio=1.40 / pb_ratio=1.30 / aq=3:0.90 / aq-sensitivity=10.00 / aq-factor=1.00:1.00:1.00 / aq2=0 / aq3=2:[0.50:0.50]:[0.50:0.50]:[0.50:0.50]:[0.50:0.50] / aq3-sensitivity=10.00 / aq3-factor=[1.00:1.00]:[1.00:1.00]:[1.00:1.00] / aq3-boundary=192:64:24
  37. Language : English
  38. Default : Yes
  39. Forced : No
  40. Color range : Limited
  41. Matrix coefficients : BT.709

  42. Audio #1
  43. ID : 2
  44. Format : AC-3
  45. Format/Info : Audio Coding 3
  46. Commercial name : Dolby Digital
  47. Codec ID : A_AC3
  48. Duration : 1 h 50 min
  49. Bit rate mode : Constant
  50. Bit rate : 448 kb/s
  51. Channel(s) : 6 channels
  52. Channel layout : L R C LFE Ls Rs
  53. Sampling rate : 48.0 kHz
  54. Frame rate : 31.250 FPS (1536 SPF)
  55. Bit depth : 16 bits
  56. Compression mode : Lossy
  57. Stream size : 353 MiB (3%)
  58. Title : Dub [License] - R5 Парадайз
  59. Language : Russian
  60. Service kind : Complete Main
  61. Default : Yes
  62. Forced : Yes

  63. Audio #2
  64. ID : 3
  65. Format : DTS
  66. Format/Info : Digital Theater Systems
  67. Codec ID : A_DTS
  68. Duration : 1 h 50 min
  69. Bit rate mode : Constant
  70. Bit rate : 1 509 kb/s
  71. Channel(s) : 6 channels
  72. Channel layout : C L R Ls Rs LFE
  73. Sampling rate : 48.0 kHz
  74. Frame rate : 93.750 FPS (512 SPF)
  75. Bit depth : 24 bits
  76. Compression mode : Lossy
  77. Stream size : 1.16 GiB (10%)
  78. Title : Original
  79. Language : English
  80. Default : No
  81. Forced : No

  82. Text
  83. ID : 4
  84. Format : UTF-8
  85. Codec ID : S_TEXT/UTF8
  86. Codec ID/Info : UTF-8 Plain Text
  87. Duration : 1 h 44 min
  88. Bit rate : 52 b/s
  89. Count of elements : 1226
  90. Stream size : 40.1 KiB (0%)
  91. Title : Full
  92. Language : English
  93. Default : No
  94. Forced : No

  95. Menu
  96. 00:00:00.000 : en:00:00:00.000
  97. 00:08:27.841 : en:00:08:27.841
  98. 00:14:29.869 : en:00:14:29.869
  99. 00:21:22.281 : en:00:21:22.281
  100. 00:28:10.689 : en:00:28:10.689
  101. 00:36:22.180 : en:00:36:22.180
  102. 00:44:25.663 : en:00:44:25.663
  103. 00:52:21.138 : en:00:52:21.138
  104. 01:01:10.667 : en:01:01:10.667
  105. 01:09:12.148 : en:01:09:12.148
  106. 01:13:46.422 : en:01:13:46.422
  107. 01:22:25.941 : en:01:22:25.941
  108. 01:26:10.165 : en:01:26:10.165
  109. 01:34:16.651 : en:01:34:16.651
  110. 01:41:24.078 : en:01:41:24.078
  111. 01:45:43.337 : en:01:45:43.337
复制代码






游客,如果您要查看本帖隐藏内容请回复

回复

使用道具 举报

禁止发言

高清币
18
金钱
22
鲜花
0
在线时间
0 小时
最后登录
2019-2-13
发表于 2019-2-12 23:54:06 | 显示全部楼层
提示: 作者被禁止或删除 内容自动屏蔽
回复 支持 1 反对 0

使用道具 举报

永恒神话

高清币
16856
金钱
29276
鲜花
0
在线时间
2154 小时
最后登录
2019-4-20
发表于 2019-2-12 23:07:17 | 显示全部楼层
谢谢发片,辛苦了
回复 支持 1 反对 0

使用道具 举报

知名艺人

高清币
1
金钱
573
鲜花
0
在线时间
107 小时
最后登录
2019-3-23
发表于 2019-2-12 22:52:42 | 显示全部楼层

楼主太厉害了!楼主,电影应该很好看我觉得中国高清论坛真是个好地方!
回复 支持 1 反对 0

使用道具 举报

好莱坞明星

高清币
953
金钱
6521
鲜花
0
在线时间
974 小时
最后登录
2019-4-20
发表于 2019-2-12 22:43:29 | 显示全部楼层

这东西我收了!谢谢楼主!中国高清论坛真好!
回复 支持 反对

使用道具 举报

人气偶像

高清币
22
金钱
752
鲜花
0
在线时间
118 小时
最后登录
2019-2-27
发表于 2019-2-12 23:04:37 | 显示全部楼层
楼主太厉害了!楼主,电影应该很好看我觉得中国高清论坛真是个好地方!
回复 支持 反对

使用道具 举报

superstar

高清币
5292
金钱
9818
鲜花
0
在线时间
1310 小时
最后登录
2019-4-20
发表于 2019-2-12 23:21:09 | 显示全部楼层

这东西我收了!谢谢楼主!中国高清论坛真好!
回复 支持 反对

使用道具 举报

金鸡奖主角

高清币
591
金钱
5011
鲜花
0
在线时间
881 小时
最后登录
2019-4-20
发表于 2019-2-12 23:21:42 | 显示全部楼层

楼主太厉害了!楼主,电影应该很好看我觉得中国高清论坛真是个好地方!
回复 支持 反对

使用道具 举报

永恒神话

高清币
8360
金钱
16044
鲜花
0
在线时间
1704 小时
最后登录
2019-4-20
发表于 2019-2-12 23:22:44 | 显示全部楼层
楼主发贴辛苦了,谢谢楼主分享!我觉得中国高清论坛是注册对了!
回复 支持 反对

使用道具 举报

知名艺人

高清币
27
金钱
407
鲜花
0
在线时间
59 小时
最后登录
2019-3-16
发表于 2019-2-12 23:23:24 | 显示全部楼层
谢谢楼主分享
回复 支持 反对

使用道具 举报

好莱坞明星

高清币
1834
金钱
4907
鲜花
0
在线时间
803 小时
最后登录
2019-4-20
发表于 2019-2-12 23:25:06 | 显示全部楼层
感谢楼主分享精彩艺术大片
回复 支持 反对

使用道具 举报

懒得打字嘛,点击右侧快捷回复 【右侧内容,后台自定义】
您需要登录后才可以回帖 登录 | 立即注册

本版积分规则

QQ|手机版|小黑屋|中国高清论坛 ( 黔ICP备16007815号-1 )

GMT+8, 2019-4-21 02:43 , Processed in 0.098609 second(s), 30 queries .

Powered by Discuz! X3.4

© 2001-2017 Comsenz Inc.

快速回复 返回顶部 返回列表