请选择 进入手机版 | 继续访问电脑版

中国高清论坛

 找回密码
 立即注册
搜索
查看: 4101|回复: 865

[动作片] 库尔斯克/潜行浩劫96小时(港) Kursk.2018.1080p.BluRay.x264.DTS-HD.MA.7.1-FGT

  [复制链接]

超级版主

高清币
15795
金钱
36813
鲜花
-88
在线时间
11542 小时
最后登录
2019-5-23
发表于 2019-3-9 19:22:06 | 显示全部楼层 |阅读模式



◎译  名 库尔斯克/深海救援(台)/潜行浩劫96小时(港)
◎片  名 Kursk
◎年  代 2018
◎产  地 比利时/卢森堡
◎类  别 动作/剧情/历史/惊悚
◎语  言 英语
◎IMDb评分 6.7/10 from 1983 users
◎IMDB链接 https://www.imdb.com/title/tt4951982/
◎片  长 1 h 57 min
◎导  演 托马斯·温特伯格 Thomas Vinterberg
◎主  演 科林·费尔斯 Colin Firth
      蕾雅·赛杜 Léa Seydoux
      马提亚斯·修奈尔 Matthias Schoenaerts
      马克斯·冯·叙多夫 Max von Sydow
      迈克尔·恩奎斯特 Michael Nyqvist
      奥古斯特·迪赫 August Diehl
      史蒂芬·威丁顿 Steven Waddington
      马提亚斯·施维赫夫 Matthias Schweighöfer
      扎特科·巴瑞克 Zlatko Buric
      彼得·西蒙尼舍克 Peter Simonischek
      古斯塔夫·汉马斯顿 Gustaf Hammarsten
      拉尔斯·博格曼 Lars Brygmann
      乔尔·巴斯曼 Joel Basman
      皮特·布科夫斯基 Pit Bukowski
      布贾内·亨里克森 Bjarne Henriksen
      海伦娜·赖因科德·纳曼 Helene Reingaard Neumann
      皮特·泼拉格伯格 Peter Plaugborg
      米格伦·米切夫 Miglen Mirtchev
      马格努斯·米兰 Magnus Millang
      菲迪迦·斯图肯 Fedja Stukan
      John Hollingworth
      Aske Bang
      Martin Brambach
      Tijmen Govaerts
      Guido De Craene


◎简  介  


  《库尔斯克》的故事聚焦2000年俄罗斯核潜艇“库尔斯克”沉没事件。彼时进行作战训练的库尔斯克号艇内鱼雷自爆,118位船员全部罹难。事件也成了历史上最严重的潜水艇事故。

  俄罗斯库尔斯克号核潜艇是当时世界最先进、最大的战术核潜艇之一,专门用来攻击航空母舰,曾被媒体誉为“航母终结者”。像“泰坦尼克”号超级油轮一样,库尔斯克号核潜艇也曾经被认为是“永不沉没”的潜艇。

  1. Video
  2. ID : 1
  3. Format : AVC
  4. Format/Info : Advanced Video Codec
  5. Format profile : [email]High@L4.1[/email]
  6. Format settings : CABAC / 4 Ref Frames
  7. Format settings, CABAC : Yes
  8. Format settings, ReFrames : 4 frames
  9. Codec ID : V_MPEG4/ISO/AVC
  10. Duration : 1 h 57 min
  11. Bit rate : 11.5 Mb/s
  12. Width : 1 920 pixels
  13. Height : 804 pixels
  14. Display aspect ratio : 2.40:1
  15. Frame rate mode : Constant
  16. Frame rate : 24.000 FPS
  17. Color space : YUV
  18. Chroma subsampling : 4:2:0
  19. Bit depth : 8 bits
  20. Scan type : Progressive
  21. Bits/(Pixel*Frame) : 0.310
  22. Stream size : 9.45 GiB (72%)
  23. Title : Kursk.2018.1080p.BluRay.x264.DTS-HD.MA.7.1-FGT
  24. Writing library : x264 core 148 r2795M aaa9aa8
  25. Encoding settings : cabac=1 / ref=4 / deblock=1:-2:-2 / analyse=0x3:0x113 / me=umh / subme=9 / psy=1 / psy_rd=1.00:0.15 / mixed_ref=1 / me_range=16 / chroma_me=1 / trellis=2 / 8x8dct=1 / cqm=0 / deadzone=21,11 / fast_pskip=1 / chroma_qp_offset=-3 / threads=24 / lookahead_threads=3 / sliced_threads=0 / nr=0 / decimate=1 / interlaced=0 / bluray_compat=0 / constrained_intra=0 / bframes=3 / b_pyramid=2 / b_adapt=1 / b_bias=0 / direct=3 / weightb=1 / open_gop=0 / weightp=2 / keyint=250 / keyint_min=25 / scenecut=40 / intra_refresh=0 / rc_lookahead=50 / rc=2pass / mbtree=1 / bitrate=11500 / ratetol=1.0 / qcomp=0.60 / qpmin=0 / qpmax=69 / qpstep=4 / cplxblur=20.0 / qblur=0.5 / vbv_maxrate=31250 / vbv_bufsize=31250 / nal_hrd=none / filler=0 / ip_ratio=1.40 / aq=1:1.00
  26. Language : English
  27. Default : Yes
  28. Forced : No

  29. Audio
  30. ID : 2
  31. Format : DTS XLL
  32. Format/Info : Digital Theater Systems
  33. Commercial name : DTS-HD Master Audio
  34. Codec ID : A_DTS
  35. Duration : 1 h 57 min
  36. Bit rate mode : Variable
  37. Bit rate : 4 488 kb/s
  38. Channel(s) : 8 channels
  39. Channel layout : C L R LFE Lb Rb Lss Rss
  40. Sampling rate : 48.0 kHz
  41. Frame rate : 93.750 FPS (512 SPF)
  42. Bit depth : 24 bits
  43. Compression mode : Lossless
  44. Stream size : 3.69 GiB (28%)
  45. Title : Kursk.2018.1080p.BluRay.x264.DTS-HD.MA.7.1-FGT
  46. Language : English
  47. Default : Yes
  48. Forced : No

  49. Menu
  50. 00:00:00.000 : en:Chapter 01
  51. 00:10:35.000 : en:Chapter 02
  52. 00:20:02.000 : en:Chapter 03
  53. 00:31:43.000 : en:Chapter 04
  54. 00:38:38.000 : en:Chapter 05
  55. 00:48:32.000 : en:Chapter 06
  56. 00:59:55.000 : en:Chapter 07
  57. 01:08:57.000 : en:Chapter 08
  58. 01:18:16.000 : en:Chapter 09
  59. 01:28:53.000 : en:Chapter 10
  60. 01:38:18.000 : en:Chapter 11
  61. 01:47:32.000 : en:Chapter 12
复制代码






游客,如果您要查看本帖隐藏内容请回复



回复

使用道具 举报

跑龙套

高清币
3
金钱
29
鲜花
0
在线时间
4 小时
最后登录
2019-3-24
发表于 2019-3-9 22:44:15 | 显示全部楼层

楼主太厉害了!楼主,电影应该很好看我觉得中国高清论坛真是个好地方!
回复 支持 3 反对 0

使用道具 举报

永恒神话

高清币
5535
金钱
10888
鲜花
0
在线时间
1044 小时
最后登录
2019-5-23
发表于 2019-3-9 22:40:36 | 显示全部楼层

这东西我收了!谢谢楼主!中国高清论坛真好!
回复 支持 2 反对 0

使用道具 举报

跑龙套

高清币
10
金钱
18
鲜花
0
在线时间
8 小时
最后登录
2019-3-17
发表于 2019-3-14 14:59:44 | 显示全部楼层
全网最新箩莉幼幼在线观看:

http://93p.xyz/portal.php?x=625933
回复 支持 1 反对 0

使用道具 举报

知名艺人

高清币
141
金钱
441
鲜花
0
在线时间
66 小时
最后登录
2019-5-12
发表于 2019-3-9 21:12:05 | 显示全部楼层

感谢楼主的无私分享!要想中国高清论坛好 就靠你我他
回复 支持 1 反对 0

使用道具 举报

知名艺人

高清币
1
金钱
399
鲜花
0
在线时间
274 小时
最后登录
2019-5-23
发表于 2019-3-9 21:09:43 | 显示全部楼层

楼主发贴辛苦了,谢谢楼主分享!我觉得中国高清论坛是注册对了
回复 支持 1 反对 0

使用道具 举报

天王巨星

高清币
21
金钱
2352
鲜花
0
在线时间
541 小时
最后登录
2019-5-22
发表于 2019-3-9 19:26:44 | 显示全部楼层
楼主发贴辛苦了,谢谢楼主分享!我觉得中国高清论坛是注册对了!
回复 支持 反对

使用道具 举报

超级明星

高清币
2326
金钱
4556
鲜花
0
在线时间
1209 小时
最后登录
2019-5-23
发表于 2019-3-9 19:28:11 | 显示全部楼层

楼主太厉害了!楼主,电影应该很好看我觉得中国高清论坛真是个好地方!
回复 支持 反对

使用道具 举报

天王巨星

高清币
635
金钱
2125
鲜花
0
在线时间
223 小时
最后登录
2019-5-4
发表于 2019-3-9 19:28:29 | 显示全部楼层
楼主发贴辛苦了,谢谢楼主分享!我觉得中国高清论坛是注册对了!
回复 支持 反对

使用道具 举报

好莱坞明星

高清币
901
金钱
5486
鲜花
0
在线时间
808 小时
最后登录
2019-5-22
发表于 2019-3-9 19:29:13 | 显示全部楼层
楼主发贴辛苦了,谢谢楼主分享!我觉得中国高清论坛是注册对了!
回复 支持 反对

使用道具 举报

人气偶像

高清币
441
金钱
1228
鲜花
0
在线时间
448 小时
最后登录
2019-5-22
发表于 2019-3-9 19:29:31 | 显示全部楼层

这东西我收了!谢谢楼主!中国高清论坛真好!
回复 支持 反对

使用道具 举报

金鸡奖主角

高清币
-3
金钱
5104
鲜花
0
在线时间
1962 小时
最后登录
2019-5-23
发表于 2019-3-9 19:30:06 | 显示全部楼层

这东西我收了!谢谢楼主!中国高清论坛真好!
回复 支持 反对

使用道具 举报

影坛巨星

高清币
1233
金钱
8839
鲜花
0
在线时间
2167 小时
最后登录
2019-5-23
发表于 2019-3-9 19:30:11 手机频道 | 显示全部楼层
楼主发贴辛苦了,谢谢楼主分享!
回复 支持 反对

使用道具 举报

永恒神话

高清币
37757
金钱
74585
鲜花
0
在线时间
6326 小时
最后登录
2019-5-23
发表于 2019-3-9 19:30:32 | 显示全部楼层

楼主太厉害了!楼主,电影应该很好看我觉得中国高清论坛真是个好地方!
回复 支持 反对

使用道具 举报

永恒神话

高清币
8105
金钱
19485
鲜花
0
在线时间
4038 小时
最后登录
2019-5-23
发表于 2019-3-9 19:32:07 | 显示全部楼层
楼主发贴辛苦了,谢谢楼主分享!我觉得中国高清论坛是注册对了!
回复 支持 反对

使用道具 举报

懒得打字嘛,点击右侧快捷回复 【右侧内容,后台自定义】
您需要登录后才可以回帖 登录 | 立即注册

本版积分规则

QQ|手机版|小黑屋|中国高清论坛 ( 黔ICP备16007815号-1 )

GMT+8, 2019-5-23 16:59 , Processed in 0.074680 second(s), 30 queries .

Powered by Discuz! X3.4

© 2001-2017 Comsenz Inc.

快速回复 返回顶部 返回列表