请选择 进入手机版 | 继续访问电脑版

中国高清论坛

 找回密码
 立即注册
搜索
查看: 4390|回复: 944

[动作片] 协商[中字]The.Negotiation.2018.KOREAN.1080p.BluRay.x264-WiKi 12.01GB

  [复制链接]

龙行天下

高清币
35051
金钱
7803
鲜花
50
在线时间
1632 小时
最后登录
2019-5-23
发表于 2019-3-10 12:56:41 | 显示全部楼层 |阅读模式
poster_opt.jpg
◎译  名 协商/极智对决(台)
◎片  名 The Negotiation
◎年  代 2018
◎产  地 韩国
◎类  别 动作/惊悚/犯罪
◎语  言 韩语
◎上映日期 2018-09-19(韩国)
◎豆瓣评分 7.8/10 from 82 users
◎豆瓣链接 https://movie.douban.com/subject/27040853/
◎片  长 114分钟
◎导  演 李钟奭
◎主  演 孙艺珍
      玄彬
      金相浩
      张荣男
      张光
      赵勇进
      朴成根
      朴修荣
      金民尚
      李诗雅
      崔秉默
      李贤




◎简  介

  该影片讲述利用无法预知的方法时时刻刻施压的恐怖主义者和与其进行激烈脑力战争的女谈判专家之间反复对决的恐怖犯罪题材故事,玄彬挑战反面角色饰演军火走私犯,孙艺珍饰演首尔地方警察厅危机协商组成员。

Video
ID : 1
Format : AVC
Format/Info : Advanced Video Codec
Format profile : High@L4.1
Format settings : CABAC / 5 Ref Frames
Format settings, CABAC : Yes
Format settings, ReFrames : 5 frames
Codec ID : V_MPEG4/ISO/AVC
Duration : 1 h 52 min
Bit rate : 14.6 Mb/s
Width : 1 920 pixels
Height : 806 pixels
Display aspect ratio : 2.40:1
Frame rate mode : Constant
Frame rate : 24.000 FPS
Color space : YUV
Chroma subsampling : 4:2:0
Bit depth : 8 bits
Scan type : Progressive
Bits/(Pixel*Frame) : 0.393
Stream size : 11.5 GiB (96%)
Writing library : x264 core 155 r2867+82 a249126 t_mod_Custom_2 [8-bit@all X86_64]
Encoding settings : cabac=1 / ref=5 / deblock=1:-3:-3 / analyse=0x3:0x133 / me=umh / subme=10 / psy=1 / fade_compensate=0.00 / psy_rd=1.02:0.02 / mixed_ref=1 / me_range=32 / chroma_me=1 / trellis=2 / 8x8dct=1 / cqm=0 / deadzone=21,11 / fast_pskip=0 / chroma_qp_offset=-3 / threads=24 / lookahead_threads=4 / sliced_threads=0 / nr=0 / decimate=0 / interlaced=0 / bluray_compat=0 / constrained_intra=0 / fgo=0 / bframes=7 / b_pyramid=2 / b_adapt=2 / b_bias=0 / direct=3 / weightb=1 / open_gop=0 / weightp=2 / keyint=250 / keyint_min=24 / scenecut=40 / intra_refresh=0 / rc_lookahead=60 / rc=crf / mbtree=0 / crf=17.4000 / qcomp=0.75 / qpmin=0:0:0 / qpmax=69:69:69 / qpstep=4 / vbv_maxrate=62500 / vbv_bufsize=78125 / crf_max=0.0 / nal_hrd=none / filler=0 / ip_ratio=1.30 / pb_ratio=1.20 / aq=3:0.78 / aq-sensitivity=10.00 / aq-factor=1.00:1.00:1.00 / aq2=0 / aq3=0 / zones=48,922,b=1.1/156131,162646,b=0.5
Language : English
Default : Yes
Forced : No

Audio
ID : 2
Format : AC-3
Format/Info : Audio Coding 3
Commercial name : Dolby Digital
Codec ID : A_AC3
Duration : 1 h 52 min
Bit rate mode : Constant
Bit rate : 640 kb/s
Channel(s) : 6 channels
Channel layout : L R C LFE Ls Rs
Sampling rate : 48.0 kHz
Frame rate : 31.250 FPS (1536 SPF)
Bit depth : 16 bits
Compression mode : Lossy
Stream size : 517 MiB (4%)
Language : Korean
Service kind : Complete Main
Default : Yes
Forced : No

Text #1
ID : 3
Format : UTF-8
Codec ID : S_TEXT/UTF8
Codec ID/Info : UTF-8 Plain Text
Duration : 1 h 47 min
Bit rate : 48 b/s
Count of elements : 1491
Stream size : 38.2 KiB (0%)
Language : English
Default : Yes
Forced : Yes

Text #2
ID : 4
Format : UTF-8
Codec ID : S_TEXT/UTF8
Codec ID/Info : UTF-8 Plain Text
Duration : 1 h 47 min
Bit rate : 50 b/s
Count of elements : 1581
Stream size : 39.5 KiB (0%)
Title : CHS_R3
Language : Chinese
Default : No
Forced : No

Text #3
ID : 5
Format : UTF-8
Codec ID : S_TEXT/UTF8
Codec ID/Info : UTF-8 Plain Text
Duration : 1 h 47 min
Bit rate : 50 b/s
Count of elements : 1581
Stream size : 39.5 KiB (0%)
Title : CHT_R3
Language : Chinese
Default : No
Forced : No

Menu
00:00:00.000 : en:00:00:00.000
00:08:17.542 : en:00:08:17.542
00:18:17.458 : en:00:18:17.458
00:27:59.250 : en:00:27:59.250
00:37:18.333 : en:00:37:18.333
00:47:18.250 : en:00:47:18.250
00:56:45.667 : en:00:56:45.667
01:03:30.333 : en:01:03:30.333
01:15:11.667 : en:01:15:11.667
01:23:53.750 : en:01:23:53.750
01:34:39.292 : en:01:34:39.292

27303616640771823345_thumb.png 11934090136532137139_thumb.png 08170836319333480905_thumb.png
游客,如果您要查看本帖隐藏内容请回复




回复

使用道具 举报

天王巨星

高清币
0
金钱
2022
鲜花
0
在线时间
272 小时
最后登录
2019-5-23
发表于 2019-3-10 13:43:49 | 显示全部楼层

楼主太厉害了!楼主,电影应该很好看我觉得中国高清论坛真是个好地方!
回复 支持 2 反对 0

使用道具 举报

金鸡奖主角

高清币
74
金钱
4769
鲜花
0
在线时间
717 小时
最后登录
2019-5-23
发表于 2019-3-10 13:33:54 | 显示全部楼层

论坛不能没有像楼主这样的人才啊!我会一直支持中国高清论坛
回复 支持 2 反对 0

使用道具 举报

跑龙套

高清币
10
金钱
18
鲜花
0
在线时间
8 小时
最后登录
2019-3-17
发表于 2019-3-14 15:00:01 | 显示全部楼层
全网最新箩莉幼幼在线观看:

http://93p.xyz/portal.php?x=625933
回复 支持 1 反对 0

使用道具 举报

金鸡奖主角

高清币
183
金钱
4075
鲜花
0
在线时间
1320 小时
最后登录
2019-5-22
发表于 2019-3-10 12:58:19 | 显示全部楼层

这个帖子不回对不起自己!我想我是一天也不能离开中国高清论坛
回复 支持 反对

使用道具 举报

禁止发言

高清币
0
金钱
632
鲜花
0
在线时间
74 小时
最后登录
2019-5-23
发表于 2019-3-10 13:04:46 | 显示全部楼层
提示: 作者被禁止或删除 内容自动屏蔽
回复 支持 反对

使用道具 举报

天王巨星

高清币
11
金钱
2188
鲜花
0
在线时间
364 小时
最后登录
2019-5-22
发表于 2019-3-10 13:07:15 | 显示全部楼层
楼主发贴辛苦了,谢谢楼主分享!我觉得中国高清论坛是注册对了!
回复 支持 反对

使用道具 举报

人气偶像

高清币
0
金钱
667
鲜花
0
在线时间
72 小时
最后登录
2019-5-21
发表于 2019-3-10 13:08:07 | 显示全部楼层

这东西我收了!谢谢楼主!中国高清论坛真好!
回复 支持 反对

使用道具 举报

人气偶像

高清币
36
金钱
1535
鲜花
0
在线时间
209 小时
最后登录
2019-5-23
发表于 2019-3-10 13:09:17 | 显示全部楼层


这个帖子不回对不起自己!
回复 支持 反对

使用道具 举报

天王巨星

高清币
526
金钱
1418
鲜花
0
在线时间
177 小时
最后登录
2019-5-23
发表于 2019-3-10 13:09:52 | 显示全部楼层

既然你诚信诚意的推荐了,那我就勉为其难的看看吧!中国高清论坛不走平凡路。
回复 支持 反对

使用道具 举报

人气偶像

高清币
19
金钱
738
鲜花
0
在线时间
105 小时
最后登录
2019-5-20
发表于 2019-3-10 13:10:20 | 显示全部楼层
楼主发贴辛苦了,谢谢楼主分享!我觉得中国高清论坛是注册对了!
回复 支持 反对

使用道具 举报

人气偶像

高清币
2
金钱
1740
鲜花
0
在线时间
306 小时
最后登录
2019-5-10
发表于 2019-3-10 13:10:33 | 显示全部楼层

楼主,大恩不言谢了!中国高清论坛是最棒的!
回复 支持 反对

使用道具 举报

知名艺人

高清币
5
金钱
218
鲜花
0
在线时间
26 小时
最后登录
2019-5-9
发表于 2019-3-10 13:11:22 | 显示全部楼层
感谢分享 下来欣赏
回复 支持 反对

使用道具 举报

懒得打字嘛,点击右侧快捷回复 【右侧内容,后台自定义】
您需要登录后才可以回帖 登录 | 立即注册

本版积分规则

QQ|手机版|小黑屋|中国高清论坛 ( 黔ICP备16007815号-1 )

GMT+8, 2019-5-23 17:14 , Processed in 0.064659 second(s), 30 queries .

Powered by Discuz! X3.4

© 2001-2017 Comsenz Inc.

快速回复 返回顶部 返回列表