请选择 进入手机版 | 继续访问电脑版

中国高清论坛

 找回密码
 立即注册
搜索
查看: 6319|回复: 1021

[爱情片] 太空两性指南 A.I.Rising.2018.1080p.AMZN.WEBRip.DDP5.1.x264-NTG 5.44 GiB

  [复制链接]

超级版主

高清币
15795
金钱
36813
鲜花
-88
在线时间
11542 小时
最后登录
2019-5-23
发表于 2019-3-12 16:56:15 | 显示全部楼层 |阅读模式


◎译  名 太空两性指南
◎片  名 Ederlezi Rising/A.I. Rising
◎年  代 2018
◎国  家 塞尔维亚
◎类  别 剧情/爱情/科幻
◎语  言 英语
◎IMDb评分 7.0/10 from 1293 users
◎IMDB链接 http://www.imdb.com/title/tt5215088
◎片  长 1 h 27 min   
◎导  演 Lazar Bodroža
◎主  演 塞巴斯蒂安·卡瓦扎 Sebastian Cavazza
       斯托雅 Stoya
       Marusa Majer

◎简  介


  Ederlezi Rising is an exciting science fiction romance set in near future about the pioneering space mission to Alpha Centauri undertaken by the multinational Ederlezi Corporation. Ederlezi recruits MIlutin a Slav cosmonaut trained in the newly reformed futuristic Soviet Union and accompanies him with Nimani, a female android programmed to fulfill whatever he desires.

  1. Video
  2. ID : 1
  3. Format : AVC
  4. Format/Info : Advanced Video Codec
  5. Format profile : High@L4
  6. Format settings : CABAC / 4 Ref Frames
  7. Format settings, CABAC : Yes
  8. Format settings, ReFrames : 4 frames
  9. Codec ID : V_MPEG4/ISO/AVC
  10. Duration :  
  11. Bit rate mode : Constant
  12. Bit rate : 8 259 kb/s
  13. Nominal bit rate : 10 000 kb/s
  14. Width : 1 920 pixels
  15. Height : 1 080 pixels
  16. Display aspect ratio : 16:9
  17. Frame rate mode : Constant
  18. Frame rate : 23.976 (24000/1001) FPS
  19. Color space : YUV
  20. Chroma subsampling : 4:2:0
  21. Bit depth : 8 bits
  22. Scan type : Progressive
  23. Bits/(Pixel*Frame) : 0.166
  24. Stream size : 5.05 GiB (93%)
  25. Default : Yes
  26. Forced : No
  27. Color range : Limited
  28. Color primaries : BT.709
  29. Transfer characteristics : BT.709
  30. Matrix coefficients : BT.709

  31. Audio
  32. ID : 2
  33. Format : E-AC-3
  34. Format/Info : Enhanced AC-3
  35. Commercial name : Dolby Digital Plus
  36. Codec ID : A_EAC3
  37. Duration :  
  38. Bit rate mode : Constant
  39. Bit rate : 640 kb/s
  40. Channel(s) : 6 channels
  41. Channel layout : L R C LFE Ls Rs
  42. Sampling rate : 48.0 kHz
  43. Frame rate : 31.250 FPS (1536 SPF)
  44. Compression mode : Lossy
  45. Stream size : 401 MiB (7%)
  46. Language : English
  47. Service kind : Complete Main
  48. Default : Yes
  49. Forced : No

  50. Text #1
  51. ID : 3
  52. Format : UTF-8
  53. Codec ID : S_TEXT/UTF8
  54. Codec ID/Info : UTF-8 Plain Text
  55. Duration : 1 h 18 min
  56. Bit rate : 43 b/s
  57. Count of elements : 706
  58. Stream size : 24.9 KiB (0%)
  59. Language : English
  60. Default : No
  61. Forced : No

  62. Text #2
  63. ID : 4
  64. Format : UTF-8
  65. Codec ID : S_TEXT/UTF8
  66. Codec ID/Info : UTF-8 Plain Text
  67. Duration : 1 h 25 min
  68. Bit rate : 43 b/s
  69. Count of elements : 771
  70. Stream size : 27.2 KiB (0%)
  71. Title : SDH
  72. Language : English
  73. Default : No
  74. Forced : No
复制代码







游客,如果您要查看本帖隐藏内容请回复
回复

使用道具 举报

人气偶像

高清币
615
金钱
934
鲜花
0
在线时间
123 小时
最后登录
2019-5-4
发表于 2019-3-12 16:58:08 | 显示全部楼层
感谢超版的无私分享!感谢中国高清论坛
回复 支持 反对

使用道具 举报

永恒神话

高清币
6092
金钱
11490
鲜花
0
在线时间
1359 小时
最后登录
2019-5-22
发表于 2019-3-12 16:58:23 | 显示全部楼层

楼主太厉害了!楼主,电影应该很好看我觉得中国高清论坛真是个好地方!
回复 支持 反对

使用道具 举报

金鸡奖主角

高清币
339
金钱
4755
鲜花
0
在线时间
508 小时
最后登录
2019-5-23
发表于 2019-3-12 16:59:00 | 显示全部楼层
感谢超版的无私分享!感谢中国高清论坛
回复 支持 反对

使用道具 举报

天王巨星

高清币
32
金钱
2244
鲜花
0
在线时间
488 小时
最后登录
2019-5-22
发表于 2019-3-12 16:59:08 | 显示全部楼层
感谢超版的无私分享!感谢中国高清论坛
回复 支持 反对

使用道具 举报

影坛巨星

高清币
1208
金钱
8267
鲜花
0
在线时间
1055 小时
最后登录
2019-5-23
发表于 2019-3-12 17:02:41 | 显示全部楼层

楼主太厉害了!楼主,电影应该很好看我觉得中国高清论坛真是个好地方!
回复 支持 反对

使用道具 举报

天王巨星

高清币
37
金钱
2207
鲜花
0
在线时间
235 小时
最后登录
2019-5-11
发表于 2019-3-12 17:03:07 | 显示全部楼层

楼主太厉害了!楼主,电影应该很好看我觉得中国高清论坛真是个好地方!
回复 支持 反对

使用道具 举报

知名艺人

高清币
14
金钱
137
鲜花
0
在线时间
29 小时
最后登录
2019-3-20
发表于 2019-3-12 17:03:09 | 显示全部楼层
这是科幻电影吗
回复 支持 反对

使用道具 举报

金鸡奖主角

高清币
2
金钱
4235
鲜花
0
在线时间
577 小时
最后登录
2019-5-23
发表于 2019-3-12 17:05:03 | 显示全部楼层

楼主太厉害了!楼主,电影应该很好看我觉得中国高清论坛真是个好地方!
回复 支持 反对

使用道具 举报

超级明星

高清币
870
金钱
6993
鲜花
0
在线时间
1920 小时
最后登录
2019-5-23
发表于 2019-3-12 17:05:38 | 显示全部楼层
楼主发贴辛苦了,谢谢楼主分享!我觉得中国高清论坛是注册对了!
回复 支持 反对

使用道具 举报

懒得打字嘛,点击右侧快捷回复 【右侧内容,后台自定义】
您需要登录后才可以回帖 登录 | 立即注册

本版积分规则

QQ|手机版|小黑屋|中国高清论坛 ( 黔ICP备16007815号-1 )

GMT+8, 2019-5-23 16:56 , Processed in 0.068009 second(s), 29 queries .

Powered by Discuz! X3.4

© 2001-2017 Comsenz Inc.

快速回复 返回顶部 返回列表