请选择 进入手机版 | 继续访问电脑版

中国高清论坛

 找回密码
 立即注册
搜索
查看: 5238|回复: 1181

[喜剧片] 极限职业/鸡不可失(台) ExtremeJob.2018.1080p.HDRip.H264.AAC-NonDRM 4.24 GiB

  [复制链接]

超级版主

高清币
15833
金钱
36897
鲜花
-88
在线时间
11548 小时
最后登录
2019-5-26
发表于 2019-3-15 23:50:11 | 显示全部楼层 |阅读模式



◎译  名 极限职业/极端职业/炸鸡特攻队(港)/鸡不可失(台)
◎片  名 Geukhanjikeob /Extreme Job/극한직업
◎年  代 2018
◎国  家 抄袭
◎类  别 喜剧
◎语  言 韩语
◎IMDb评分 7.5/10 from 490 users
◎IMDB链接 https://www.imdb.com/title/tt9541602/[/colo]
◎片  长 1 h 51 min   
◎导  演 李炳宪 Byeong-Heon Lee
◎主  演 柳承龙 Seung-yong Ryoo
       李东辉 Dong-Hwi Lee
       李荷妮 Ha-nui Lee
       陈善圭 Seon-kyu Jin
       申河均 Ha-kyun Shin

◎简  介

  一支由5位掉漆警探组成的缉毒小组,因办事不力被长官钉得满头包,成天埋伏在毒贩巢穴对面的炸鸡店中监视,案情也毫无进展。既然每天都得待在炸鸡店,不如动手卖起炸鸡,看似无厘头的决定,竟让鲁蛇警探们意外找到事业第二春,卖到吓吓叫的神级美味炸鸡,让餐厅一夕爆红,订单电话接到手软!副业做太大的警探们有办法达成使命吗?对面的毒贩又是否会闻香而来呢?

  1. General
  2. Complete name                  : D:\迅雷下载\Extreme Job.2018.1080p.HDRip.H264.AAC-NonDRM.mp4
  3. Format                         : MPEG-4
  4. Format profile                 : Base Media
  5. Codec ID                       : isom (isom/iso2/avc1/mp41)
  6. File size                      : 4.24 GiB
  7. Duration                       : 1 h 51 min
  8. Overall bit rate               : 5 448 kb/s
  9. Writing application            : Lavf57.71.100
  10. FileExtension_Invalid          : mov mp4 m4v m4a m4b m4p 3ga 3gpa 3gpp 3gp 3gpp2 3g2 k3g jpm jpx mqv ismv isma ismt f4a f4b f4v

  11. Video
  12. ID                             : 1
  13. Format                         : AVC
  14. Format/Info                    : Advanced Video Codec
  15. Format profile                 : High@L4
  16. Format settings                : CABAC / 4 Ref Frames
  17. Format settings, CABAC         : Yes
  18. Format settings, ReFrames      : 4 frames
  19. Format settings, GOP           : M=4, N=23
  20. Codec ID                       : avc1
  21. Codec ID/Info                  : Advanced Video Coding
  22. Duration                       : 1 h 51 min
  23. Bit rate                       : 4 607 kb/s
  24. Nominal bit rate               : 5 120 kb/s
  25. Width                          : 1 920 pixels
  26. Height                         : 1 080 pixels
  27. Display aspect ratio           : 16:9
  28. Frame rate mode                : Constant
  29. Frame rate                     : 23.976 (24000/1001) FPS
  30. Color space                    : YUV
  31. Chroma subsampling             : 4:2:0
  32. Bit depth                      : 8 bits
  33. Scan type                      : Progressive
  34. Bits/(Pixel*Frame)             : 0.093
  35. Stream size                    : 3.58 GiB (85%)
  36. Writing library                : x264 core 148 r2768 d32d7bf
  37. Encoding settings              : cabac=1 / ref=3 / deblock=1:0:0 / analyse=0x3:0x113 / me=hex / subme=8 / psy=1 / psy_rd=1.00:0.00 / mixed_ref=1 / me_range=16 / chroma_me=1 / trellis=2 / 8x8dct=1 / cqm=0 / deadzone=21,11 / fast_pskip=1 / chroma_qp_offset=-2 / threads=24 / lookahead_threads=4 / sliced_threads=0 / nr=0 / decimate=1 / interlaced=0 / bluray_compat=0 / stitchable=1 / constrained_intra=0 / bframes=3 / b_pyramid=2 / b_adapt=1 / b_bias=0 / direct=3 / weightb=1 / open_gop=0 / weightp=2 / keyint=23 / keyint_min=12 / scenecut=40 / intra_refresh=0 / rc_lookahead=23 / rc=2pass / mbtree=1 / bitrate=5120 / ratetol=1.0 / qcomp=0.60 / qpmin=0 / qpmax=69 / qpstep=4 / cplxblur=20.0 / qblur=0.5 / ip_ratio=1.40 / aq=1:1.00
  38. Codec configuration box        : avcC

  39. Audio
  40. ID                             : 2
  41. Format                         : AAC LC
  42. Format/Info                    : Advanced Audio Codec Low Complexity
  43. Codec ID                       : mp4a-40-2
  44. Duration                       : 1 h 51 min
  45. Bit rate mode                  : Constant
  46. Bit rate                       : 320 kb/s
  47. Channel(s)                     : 2 channels
  48. Channel layout                 : L R
  49. Sampling rate                  : 48.0 kHz
  50. Frame rate                     : 46.875 FPS (1024 SPF)
  51. Compression mode               : Lossy
  52. Stream size                    : 248 MiB (6%)
  53. Default                        : Yes
  54. Alternate group                : 1

复制代码

游客,如果您要查看本帖隐藏内容请回复
回复

使用道具 举报

天王巨星

高清币
-4
金钱
2978
鲜花
0
在线时间
523 小时
最后登录
2019-5-24
发表于 2019-3-15 23:53:48 | 显示全部楼层

楼主太厉害了!楼主,电影应该很好看我觉得中国高清论坛真是个好地方!
回复 支持 反对

使用道具 举报

superstar

高清币
3205
金钱
11546
鲜花
0
在线时间
3614 小时
最后登录
2019-5-26
发表于 2019-3-15 23:56:26 | 显示全部楼层

楼主,大恩不言谢了!中国高清论坛是最棒的!
回复 支持 反对

使用道具 举报

superstar

高清币
4300
金钱
7536
鲜花
0
在线时间
534 小时
最后登录
2019-5-24
发表于 2019-3-15 23:56:52 | 显示全部楼层
楼主发贴辛苦了,谢谢楼主分享!
回复 支持 反对

使用道具 举报

金鸡奖主角

高清币
518
金钱
4353
鲜花
0
在线时间
545 小时
最后登录
2019-5-26
发表于 2019-3-15 23:58:34 | 显示全部楼层
楼主发贴辛苦了,谢谢楼主分享!我觉得中国高清论坛是注册对了!
回复 支持 反对

使用道具 举报

人气偶像

高清币
4
金钱
1608
鲜花
0
在线时间
428 小时
最后登录
2019-5-23
发表于 2019-3-15 23:59:32 | 显示全部楼层

楼主太厉害了!楼主,电影应该很好看我觉得中国高清论坛真是个好地方!
回复 支持 反对

使用道具 举报

好莱坞明星

高清币
612
金钱
6234
鲜花
0
在线时间
568 小时
最后登录
2019-5-26
发表于 2019-3-16 00:01:11 | 显示全部楼层
楼主发贴辛苦了,谢谢楼主分享!我觉得中国高清论坛是注册对了!
回复 支持 反对

使用道具 举报

跑龙套

高清币
14
金钱
18
鲜花
0
在线时间
1 小时
最后登录
2019-3-16
发表于 2019-3-16 00:01:19 | 显示全部楼层
少女汁源 很多资深老司机都在这 复制打开 :www.93p.xyz
回复 支持 反对

使用道具 举报

天王巨星

高清币
204
金钱
2290
鲜花
0
在线时间
1047 小时
最后登录
2019-5-26
发表于 2019-3-16 00:09:35 | 显示全部楼层
楼主发贴辛苦了,谢谢楼主分享!我觉得中国高清论坛是注册对了!
回复 支持 反对

使用道具 举报

知名艺人

高清币
34
金钱
232
鲜花
0
在线时间
35 小时
最后登录
2019-5-25
发表于 2019-3-16 00:13:56 | 显示全部楼层
感谢楼主分享。。。
回复 支持 反对

使用道具 举报

懒得打字嘛,点击右侧快捷回复 【右侧内容,后台自定义】
您需要登录后才可以回帖 登录 | 立即注册

本版积分规则

QQ|手机版|小黑屋|中国高清论坛 ( 黔ICP备16007815号-1 )

GMT+8, 2019-5-26 13:39 , Processed in 0.063560 second(s), 29 queries .

Powered by Discuz! X3.4

© 2001-2017 Comsenz Inc.

快速回复 返回顶部 返回列表