请选择 进入手机版 | 继续访问电脑版

中国高清论坛

 找回密码
 立即注册
搜索
查看: 1756|回复: 429

[动作片] 叶问外传:张天志 M.Z.I.M.L.2018.CHINESE.1080p.BluRay.x264.TrueHD.7.1.Atmos-CHD

  [复制链接]

超级版主

高清币
15833
金钱
36897
鲜花
-88
在线时间
11548 小时
最后登录
2019-5-26
发表于 2019-3-16 00:01:31 | 显示全部楼层 |阅读模式


◎译  名 叶问外传:张天志 / 叶问外传 / 叶问系列之张天志 / 张天志 / 张天志传
◎片  名 IP Man Side Story: Cheung Tin Chi / Master Z: Ip Man Legacy
◎年  代 2018
◎国  家 中国
◎类  别 剧情/动作
◎语  言 普通话
◎IMDb评分 7.2/10 from 480 users
◎IMDB链接 http://www.imdb.com/title/tt7262882
◎片  长 1h 47mn
◎导  演 袁和平 Woo-ping Yuen
◎主  演 张晋 Max Zhang
      戴夫·巴蒂斯塔 Dave Bautista
      柳岩 Yan Liu
      杨紫琼 Michelle Yeoh
      托尼·贾 Tony Jaa
      郑嘉颖 Kevin Cheng
      周秀娜 Chrissie Chaw
      谭耀文 Patrick Tam
      释彦能 Xingyu Shi
      姜皓文 Philip Keung Ho-Man
      栢天男 Adam Pak
      元华 Wah Yuen

◎简  介

  作为《叶问》系列影片,电影《叶问外传:张天志》延续了《叶问3》的故事,讲述了同为咏春传人的张天志在比武惜败叶问后,决意放下功夫、远离江湖纷争,但面对接踵而至的连番挑衅,面对家国大义遭受的恶意侵犯,决定重拾咏春惩戒毒贩、“以武之道”捍卫民族道义尊严的故事。张晋联合杨紫琼、托尼·贾、戴夫·巴蒂斯塔、郑嘉颖等中外最强功夫打星阵容,为观众呈现咏春、泰拳、西洋拳、洪拳、少林等中外功夫的“硬杠”对抗。影片突破银幕上常见的英雄形象,不仅让观众看到一名“失意英雄”的重新崛起,更能在一场场精心设计的打戏中体会高手间的彼此试探、挚友间的切磋较量、正义中的胜负抗衡……

获奖记录

台湾电影金马奖(2018;第55届)
提名
·金马奖-最佳动作设计


  1. Video
  2. ID : 1
  3. Format : AVC
  4. Format/Info : Advanced Video Codec
  5. Format profile : [email]High@L4.1[/email]
  6. Format settings : CABAC / 4 Ref Frames
  7. Format settings, CABAC : Yes
  8. Format settings, ReFrames : 4 frames
  9. Codec ID : V_MPEG4/ISO/AVC
  10. Duration : 1 h 47 min
  11. Bit rate : 11.0 Mb/s
  12. Width : 1 920 pixels
  13. Height : 858 pixels
  14. Display aspect ratio : 2.25:1
  15. Frame rate mode : Constant
  16. Frame rate : 24.000 FPS
  17. Color space : YUV
  18. Chroma subsampling : 4:2:0
  19. Bit depth : 8 bits
  20. Scan type : Progressive
  21. Bits/(Pixel*Frame) : 0.279
  22. Stream size : 8.29 GiB (88%)
  23. Title : Master.Z.Ip.Man.Legacy.2018.CHINESE.1080p.BluRay.x264.DTS-CHD
  24. Writing library : x264 core 155 r2867+74 66b5600 t_mod_Custom_2 [8-bit@all X86_64]
  25. Encoding settings : cabac=1 / ref=4 / deblock=1:-3:-3 / analyse=0x3:0x133 / me=umh / subme=10 / psy=1 / fade_compensate=0.00 / psy_rd=0.95:0.10 / mixed_ref=1 / me_range=48 / chroma_me=1 / trellis=2 / 8x8dct=1 / cqm=0 / deadzone=21,11 / fast_pskip=0 / chroma_qp_offset=-4 / threads=18 / lookahead_threads=3 / sliced_threads=0 / nr=0 / decimate=1 / interlaced=0 / bluray_compat=0 / constrained_intra=0 / fgo=0 / bframes=8 / b_pyramid=2 / b_adapt=2 / b_bias=0 / direct=3 / weightb=1 / open_gop=0 / weightp=2 / keyint=250 / keyint_min=24 / scenecut=40 / intra_refresh=0 / rc_lookahead=60 / rc=crf / mbtree=0 / crf=19.0000 / qcomp=0.70 / qpmin=0:0:0 / qpmax=69:69:69 / qpstep=4 / vbv_maxrate=35000 / vbv_bufsize=35000 / crf_max=0.0 / nal_hrd=none / filler=0 / ip_ratio=1.40 / pb_ratio=1.30 / aq=3:1.00 / aq-sensitivity=10.00 / aq-factor=1.00:1.00:1.00 / aq2=0 / aq3=2:[0.50:0.50]:[0.50:0.50]:[0.50:0.50]:[0.50:0.50] / aq3-sensitivity=10.00 / aq3-factor=[1.00:1.00]:[1.00:1.00]:[1.00:1.00] / aq3-boundary=192:64:24
  26. Language : Chinese
  27. Default : Yes
  28. Forced : No

  29. Audio
  30. ID : 2
  31. Format : DTS
  32. Format/Info : Digital Theater Systems
  33. Codec ID : A_DTS
  34. Duration : 1 h 47 min
  35. Bit rate mode : Constant
  36. Bit rate : 1 509 kb/s
  37. Channel(s) : 6 channels
  38. Channel layout : C L R Ls Rs LFE
  39. Sampling rate : 48.0 kHz
  40. Frame rate : 93.750 FPS (512 SPF)
  41. Bit depth : 24 bits
  42. Compression mode : Lossy
  43. Stream size : 1.13 GiB (12%)
  44. Title : Master.Z.Ip.Man.Legacy.2018.CHINESE.1080p.BluRay.x264.DTS-CHD
  45. Language : Chinese
  46. Default : Yes
  47. Forced : No

  48. Text
  49. ID : 3
  50. Format : UTF-8
  51. Codec ID : S_TEXT/UTF8
  52. Codec ID/Info : UTF-8 Plain Text
  53. Duration : 1 h 44 min
  54. Bit rate : 36 b/s
  55. Count of elements : 1293
  56. Stream size : 28.1 KiB (0%)
  57. Language : English
  58. Default : Yes
  59. Forced : Yes

  60. Menu
  61. 00:00:00.000 : en:Chapter 01
  62. 00:05:47.000 : en:Chapter 02
  63. 00:11:29.833 : en:Chapter 03
  64. 00:15:46.375 : en:Chapter 04
  65. 00:19:10.416 : en:Chapter 05
  66. 00:28:58.583 : en:Chapter 06
  67. 00:33:33.250 : en:Chapter 07
  68. 00:38:34.416 : en:Chapter 08
  69. 00:48:14.708 : en:Chapter 09
  70. 00:53:38.833 : en:Chapter 10
  71. 01:00:10.041 : en:Chapter 11
  72. 01:04:38.458 : en:Chapter 12
  73. 01:09:35.583 : en:Chapter 13
  74. 01:19:20.500 : en:Chapter 14
  75. 01:22:55.916 : en:Chapter 15
  76. 01:27:42.750 : en:Chapter 16
  77. 01:34:36.541 : en:Chapter 17
  78. 01:42:54.666 : en:Chapter 18
复制代码






游客,如果您要查看本帖隐藏内容请回复


回复

使用道具 举报

超级明星

高清币
2216
金钱
5093
鲜花
0
在线时间
866 小时
最后登录
2019-5-23
发表于 2019-3-16 00:07:03 | 显示全部楼层

这个帖子不回对不起自己!我想我是一天也不能离开中国高清论坛
回复 支持 反对

使用道具 举报

天王巨星

高清币
2
金钱
3205
鲜花
0
在线时间
1787 小时
最后登录
2019-5-20
发表于 2019-3-16 00:07:24 | 显示全部楼层
好东西啊吃啊
回复 支持 反对

使用道具 举报

天王巨星

高清币
2
金钱
3205
鲜花
0
在线时间
1787 小时
最后登录
2019-5-20
发表于 2019-3-16 00:07:54 | 显示全部楼层
下来看看这个怎么填
回复 支持 反对

使用道具 举报

天王巨星

高清币
376
金钱
2481
鲜花
0
在线时间
925 小时
最后登录
2019-5-26
发表于 2019-3-16 00:10:20 | 显示全部楼层
文笔流畅,修辞得体,深得魏晋诸朝遗风,更将唐风宋骨发扬得入木三分,能在有生之年看见楼主的这个帖子。
回复 支持 反对

使用道具 举报

影坛巨星

高清币
3678
金钱
7643
鲜花
0
在线时间
4017 小时
最后登录
2019-5-26
发表于 2019-3-16 00:15:38 | 显示全部楼层
Thanks for sharing
回复 支持 反对

使用道具 举报

跑龙套

高清币
14
金钱
18
鲜花
0
在线时间
1 小时
最后登录
2019-3-16
发表于 2019-3-16 00:20:19 | 显示全部楼层

少女汁源 很多资深老司机都在这 复制打开 :www.93p.xyz
回复 支持 反对

使用道具 举报

好莱坞明星

高清币
842
金钱
5806
鲜花
0
在线时间
790 小时
最后登录
2019-5-26
发表于 2019-3-16 00:27:01 | 显示全部楼层
楼主发贴辛苦了,谢谢楼主分享!我觉得中国高清论坛是注册对了!
回复 支持 反对

使用道具 举报

人气偶像

高清币
1
金钱
1528
鲜花
0
在线时间
240 小时
最后登录
2019-5-23
发表于 2019-3-16 00:31:27 | 显示全部楼层

其实我一直觉得楼主的品味不错!呵呵!中国高清论坛太棒了!
回复 支持 反对

使用道具 举报

人气偶像

高清币
11
金钱
1454
鲜花
0
在线时间
230 小时
最后登录
2019-5-26
发表于 2019-3-16 00:41:12 | 显示全部楼层
楼主发贴辛苦了,谢谢楼主分享!我觉得中国高清论坛是注册对了!
回复 支持 反对

使用道具 举报

懒得打字嘛,点击右侧快捷回复 【右侧内容,后台自定义】
您需要登录后才可以回帖 登录 | 立即注册

本版积分规则

QQ|手机版|小黑屋|中国高清论坛 ( 黔ICP备16007815号-1 )

GMT+8, 2019-5-26 13:24 , Processed in 0.060077 second(s), 29 queries .

Powered by Discuz! X3.4

© 2001-2017 Comsenz Inc.

快速回复 返回顶部 返回列表