请选择 进入手机版 | 继续访问电脑版

中国高清论坛

 找回密码
 立即注册
搜索
查看: 1851|回复: 380

[剧情片] 国家破产之日 [繁简中文字幕] Default.2018.KOREAN.720p.BluRay.x264-WiKi 5.46 GiB

  [复制链接]

超级版主

高清币
15802
金钱
36829
鲜花
-88
在线时间
11548 小时
最后登录
2019-5-24
发表于 2019-3-30 21:12:47 | 显示全部楼层 |阅读模式


◎译  名 国家破产之日/国家不渡之日/救韩大时代(港)/分秒币争(台)
◎片  名 National Bankruptcy Day/Sovereign Default/Default
◎年  代 2018
◎国  家 韩国
◎类  别 剧情
◎语  言 韩语
◎IMDb评分 6.7/10 from 267 users
◎IMDB链接 https://www.imdb.com/title/tt7233726/
◎片  长 1 h 54 min
◎导  演 崔国熙 Choi Gook-hee
◎主  演 金惠秀 Hye-soo Kim
       刘亚仁 Ah-in Yoo
       许峻豪 Jun-ho Heo
       赵宇镇 Woo-jin Jo
       文森特·卡索 Vincent Cassel
       简·库丁 Jane Curtin


◎简  介


  《国家破产之日》将镜头对准了1997年的亚洲金融风暴。讲述国家破产前的一周时间内,想要阻止危机的人和追逐利益的人身上发生的故事。金慧秀在片中饰演最早预见破产并开始寻找对策的韩国银行通货政策小组组长韩诗贤,面对复杂的体系和权利关系,她面前的道路可谓困难重重;刘亚仁则饰演在危机中逐利的金融才子尹正学;法国影帝文森·卡索将饰演秘密入韩的IMF总裁。

  1. Video
  2. ID : 1
  3. Format : AVC
  4. Format/Info : Advanced Video Codec
  5. Format profile : High@L4.1
  6. Format settings : CABAC / 9 Ref Frames
  7. Format settings, CABAC : Yes
  8. Format settings, ReFrames : 9 frames
  9. Codec ID : V_MPEG4/ISO/AVC
  10. Duration : 1 h 54 min
  11. Bit rate : 6 201 kb/s
  12. Width : 1 280 pixels
  13. Height : 720 pixels
  14. Display aspect ratio : 16:9
  15. Frame rate mode : Constant
  16. Frame rate : 24.000 FPS
  17. Color space : YUV
  18. Chroma subsampling : 4:2:0
  19. Bit depth : 8 bits
  20. Scan type : Progressive
  21. Bits/(Pixel*Frame) : 0.280
  22. Stream size : 4.95 GiB (91%)
  23. Writing library : x264 core 129 r2245 bc13772
  24. Encoding settings : cabac=1 / ref=9 / deblock=1:-3:-3 / analyse=0x3:0x133 / me=umh / subme=11 / psy=1 / psy_rd=1.05:0.05 / mixed_ref=1 / me_range=32 / chroma_me=1 / trellis=2 / 8x8dct=1 / cqm=0 / deadzone=21,11 / fast_pskip=0 / chroma_qp_offset=-3 / threads=12 / lookahead_threads=2 / sliced_threads=0 / nr=0 / decimate=1 / interlaced=0 / bluray_compat=0 / constrained_intra=0 / bframes=8 / b_pyramid=2 / b_adapt=2 / b_bias=0 / direct=3 / weightb=1 / open_gop=0 / weightp=2 / keyint=250 / keyint_min=24 / scenecut=40 / intra_refresh=0 / rc_lookahead=60 / rc=2pass / mbtree=1 / bitrate=6201 / ratetol=1.0 / qcomp=0.60 / qpmin=0 / qpmax=69 / qpstep=4 / cplxblur=20.0 / qblur=0.5 / ip_ratio=1.40 / aq=1:0.80
  25. Language : English
  26. Default : Yes
  27. Forced : No

  28. Audio
  29. ID : 2
  30. Format : AC-3
  31. Format/Info : Audio Coding 3
  32. Commercial name : Dolby Digital
  33. Codec ID : A_AC3
  34. Duration : 1 h 54 min
  35. Bit rate mode : Constant
  36. Bit rate : 640 kb/s
  37. Channel(s) : 6 channels
  38. Channel layout : L R C LFE Ls Rs
  39. Sampling rate : 48.0 kHz
  40. Frame rate : 31.250 FPS (1536 SPF)
  41. Bit depth : 16 bits
  42. Compression mode : Lossy
  43. Stream size : 524 MiB (9%)
  44. Language : Korean
  45. Service kind : Complete Main
  46. Default : Yes
  47. Forced : No

  48. Text #1
  49. ID : 3
  50. Format : UTF-8
  51. Codec ID : S_TEXT/UTF8
  52. Codec ID/Info : UTF-8 Plain Text
  53. Duration : 1 h 49 min
  54. Bit rate : 52 b/s
  55. Count of elements : 1429
  56. Stream size : 41.7 KiB (0%)
  57. Title : 港繁
  58. Language : Chinese
  59. Default : Yes
  60. Forced : No

  61. Text #2
  62. ID : 4
  63. Format : UTF-8
  64. Codec ID : S_TEXT/UTF8
  65. Codec ID/Info : UTF-8 Plain Text
  66. Duration : 1 h 49 min
  67. Bit rate : 54 b/s
  68. Count of elements : 1650
  69. Stream size : 43.7 KiB (0%)
  70. Title : 台简
  71. Language : Chinese
  72. Default : No
  73. Forced : No

  74. Text #3
  75. ID : 5
  76. Format : UTF-8
  77. Codec ID : S_TEXT/UTF8
  78. Codec ID/Info : UTF-8 Plain Text
  79. Duration : 1 h 49 min
  80. Bit rate : 52 b/s
  81. Count of elements : 1429
  82. Stream size : 41.7 KiB (0%)
  83. Title : 港简
  84. Language : Chinese
  85. Default : No
  86. Forced : No

  87. Text #4
  88. ID : 6
  89. Format : UTF-8
  90. Codec ID : S_TEXT/UTF8
  91. Codec ID/Info : UTF-8 Plain Text
  92. Duration : 1 h 49 min
  93. Bit rate : 54 b/s
  94. Count of elements : 1650
  95. Stream size : 43.7 KiB (0%)
  96. Title : 台简
  97. Language : Chinese
  98. Default : No
  99. Forced : No
复制代码



游客,如果您要查看本帖隐藏内容请回复

回复

使用道具 举报

好莱坞明星

高清币
-1
金钱
6911
鲜花
0
在线时间
1748 小时
最后登录
2019-5-23
发表于 2019-3-30 21:40:12 | 显示全部楼层

这东西我收了!谢谢楼主!中国高清论坛真好!
回复 支持 0 反对 1

使用道具 举报

人气偶像

高清币
615
金钱
934
鲜花
0
在线时间
123 小时
最后登录
2019-5-4
发表于 2019-3-30 21:13:20 | 显示全部楼层
感谢超版的分享!感谢中国高清论坛
回复 支持 反对

使用道具 举报

永恒神话

高清币
6668
金钱
8927
鲜花
0
在线时间
688 小时
最后登录
2019-5-24
发表于 2019-3-30 21:16:51 | 显示全部楼层

既然你诚信诚意的推荐了,那我就勉为其难的看看吧!中国高清论坛不走平凡路。
回复 支持 反对

使用道具 举报

人气偶像

高清币
300
金钱
1047
鲜花
0
在线时间
290 小时
最后登录
2019-4-21

天使勋章

发表于 2019-3-30 21:19:22 | 显示全部楼层
感谢楼主分享。
回复 支持 反对

使用道具 举报

知名艺人

高清币
0
金钱
492
鲜花
0
在线时间
68 小时
最后登录
2019-5-19
发表于 2019-3-30 21:22:38 | 显示全部楼层
感谢楼主分享精彩电影!
回复 支持 反对

使用道具 举报

跑龙套

高清币
0
金钱
24
鲜花
0
在线时间
3 小时
最后登录
2019-5-6
发表于 2019-3-30 21:25:05 | 显示全部楼层
这种风格一定要看,非常不多的
回复 支持 反对

使用道具 举报

知名艺人

高清币
1
金钱
175
鲜花
0
在线时间
21 小时
最后登录
2019-5-20
发表于 2019-3-30 21:29:22 | 显示全部楼层
感谢感谢感谢感谢感谢感谢
回复 支持 反对

使用道具 举报

天王巨星

高清币
356
金钱
1660
鲜花
0
在线时间
272 小时
最后登录
2019-5-24
发表于 2019-3-30 21:31:55 | 显示全部楼层
国家破产之日 Default.2018.KOREAN.720p.BluRay.x264-WiKi 5.46 GiB
回复 支持 反对

使用道具 举报

好莱坞明星

高清币
-1
金钱
6911
鲜花
0
在线时间
1748 小时
最后登录
2019-5-23
发表于 2019-3-30 21:38:08 | 显示全部楼层
好东西啊,谢谢分享
回复 支持 反对

使用道具 举报

懒得打字嘛,点击右侧快捷回复 【右侧内容,后台自定义】
您需要登录后才可以回帖 登录 | 立即注册

本版积分规则

QQ|手机版|小黑屋|85楼娱乐社区 ( 黔ICP备16007815号-1 )

GMT+8, 2019-5-24 10:45 , Processed in 0.054182 second(s), 31 queries .

Powered by Discuz! X3.4

© 2001-2017 Comsenz Inc.

快速回复 返回顶部 返回列表