请选择 进入手机版 | 继续访问电脑版

中国高清论坛

 找回密码
 立即注册
搜索
查看: 3785|回复: 436

[动作片] 王者少年/魔剑少年(台) The.Kid.Who.Would.Be.King.2019.720p.BluRay.x264.DTS-HDC

  [复制链接]

超级版主

高清币
16731
金钱
38852
鲜花
0
在线时间
11956 小时
最后登录
2019-8-19
发表于 2019-4-7 20:25:32 | 显示全部楼层 |阅读模式


◎译  名 王者少年/将成为国王的孩子/权力剑神(港)/魔剑少年(台)
◎片  名 The Kid Who Would Be King
◎年  代 2019
◎国  家 英国/美国
◎类  别 动作/冒险/家庭/奇幻
◎语  言 英语
◎IMDb评分 6.2/10 from 3432 users
◎IMDb链接 https://www.imdb.com/title/tt6811018/
◎片  长 2 h 0 min
◎导  演 乔·考尼什 Joe Cornish
◎主  演 路易斯·阿什伯恩·瑟金斯 Louis Ashbourne Serkis
       丹妮斯·高夫 Denise Gough
       迪安·肖穆 Dean Chaumoo
       汤姆·泰勒 Tom Taylor
       雷亚安娜·杜瑞斯 Rhianna Dorris



◎简  介


  故事讲述一群小朋友探索追踪一个中世纪祸害——名叫Morgana、是亚瑟王同父(母)异母(父)的妹妹的故事。路易斯饰Alex,偶然发现了亚瑟王的圣剑“Excalibur”,泰勒饰他的同伴兰斯洛特。
  1. Video
  2. ID : 1
  3. Format : AVC
  4. Format/Info : Advanced Video Codec
  5. Format profile : High@L4.1
  6. Format settings : CABAC / 12 Ref Frames
  7. Format settings, CABAC : Yes
  8. Format settings, ReFrames : 12 frames
  9. Codec ID : V_MPEG4/ISO/AVC
  10. Duration : 2 h 0 min
  11. Bit rate : 5 200 kb/s
  12. Width : 1 280 pixels
  13. Height : 538 pixels
  14. Display aspect ratio : 2.40:1
  15. Frame rate mode : Constant
  16. Frame rate : 23.976 (24000/1001) FPS
  17. Color space : YUV
  18. Chroma subsampling : 4:2:0
  19. Bit depth : 8 bits
  20. Scan type : Progressive
  21. Bits/(Pixel*Frame) : 0.315
  22. Stream size : 4.36 GiB (77%)
  23. Writing library : x264 core 148 r2665kMod a01e339
  24. Encoding settings : cabac=1 / ref=12 / deblock=1:-3:-3 / analyse=0x3:0x133 / me=umh / subme=11 / psy=1 / fade_compensate=0.00 / psy_rd=1.05:0.00 / mixed_ref=1 / me_range=32 / chroma_me=1 / trellis=2 / 8x8dct=1 / cqm=0 / deadzone=21,11 / fast_pskip=0 / chroma_qp_offset=-2 / threads=17 / lookahead_threads=2 / sliced_threads=0 / nr=0 / decimate=0 / interlaced=0 / bluray_compat=0 / constrained_intra=0 / fgo=0 / bframes=8 / b_pyramid=2 / b_adapt=2 / b_bias=0 / direct=3 / weightb=1 / open_gop=0 / weightp=2 / keyint=240 / keyint_min=24 / scenecut=40 / intra_refresh=0 / rc=2pass / mbtree=0 / bitrate=5200 / ratetol=1.0 / qcomp=0.70 / qpmin=0 / qpmax=69 / qpstep=4 / cplxblur=20.0 / qblur=0.5 / ip_ratio=1.20 / pb_ratio=1.20 / aq=3:0.85
  25. Language : English
  26. Default : Yes
  27. Forced : No

  28. Audio
  29. ID : 2
  30. Format : DTS
  31. Format/Info : Digital Theater Systems
  32. Codec ID : A_DTS
  33. Duration : 2 h 0 min
  34. Bit rate mode : Constant
  35. Bit rate : 1 509 kb/s
  36. Channel(s) : 6 channels
  37. Channel layout : C L R Ls Rs LFE
  38. Sampling rate : 48.0 kHz
  39. Frame rate : 93.750 FPS (512 SPF)
  40. Bit depth : 24 bits
  41. Compression mode : Lossy
  42. Stream size : 1.27 GiB (22%)
  43. Language : English
  44. Default : Yes
  45. Forced : No

  46. Text #1
  47. ID : 3
  48. Format : UTF-8
  49. Codec ID : S_TEXT/UTF8
  50. Codec ID/Info : UTF-8 Plain Text
  51. Duration : 1 h 59 min
  52. Bit rate : 53 b/s
  53. Count of elements : 1633
  54. Stream size : 46.8 KiB (0%)
  55. Language : English
  56. Default : Yes
  57. Forced : No

  58. Text #2
  59. ID : 4
  60. Format : UTF-8
  61. Codec ID : S_TEXT/UTF8
  62. Codec ID/Info : UTF-8 Plain Text
  63. Duration : 1 h 59 min
  64. Bit rate : 60 b/s
  65. Count of elements : 1995
  66. Stream size : 53.1 KiB (0%)
  67. Title : SDH
  68. Language : English
  69. Default : No
  70. Forced : No

  71. Menu
  72. 00:00:00.000 : en:00:00:00.000
  73. 00:06:30.015 : en:00:06:30.015
  74. 00:11:41.200 : en:00:11:41.200
  75. 00:15:52.869 : en:00:15:52.869
  76. 00:20:21.762 : en:00:20:21.762
  77. 00:27:00.410 : en:00:27:00.410
  78. 00:34:03.959 : en:00:34:03.959
  79. 00:40:08.239 : en:00:40:08.239
  80. 00:43:21.182 : en:00:43:21.182
  81. 00:47:42.735 : en:00:47:42.735
  82. 00:55:36.291 : en:00:55:36.291
  83. 00:59:38.325 : en:00:59:38.325
  84. 01:06:51.216 : en:01:06:51.216
  85. 01:11:45.551 : en:01:11:45.551
  86. 01:17:40.614 : en:01:17:40.614
  87. 01:21:47.903 : en:01:21:47.903
  88. 01:25:25.537 : en:01:25:25.537
  89. 01:27:57.772 : en:01:27:57.772
  90. 01:31:37.033 : en:01:31:37.033
  91. 01:33:56.881 : en:01:33:56.881
  92. 01:38:30.780 : en:01:38:30.780
  93. 01:44:10.995 : en:01:44:10.995
  94. 01:50:55.357 : en:01:50:55.357
  95. 01:53:32.848 : en:01:53:32.848
复制代码







游客,如果您要查看本帖隐藏内容请回复,您还可以免扣高清币免回复下载:https://www.85lou.com/plugin.php?id=wyfaka_url:url

回复

使用道具 举报

金鸡奖主角

高清币
345
金钱
4802
鲜花
0
在线时间
860 小时
最后登录
2019-8-18
发表于 2019-4-7 20:32:35 | 显示全部楼层
感谢楼主分享!
回复 支持 反对

使用道具 举报

好莱坞明星

高清币
91
金钱
5871
鲜花
0
在线时间
802 小时
最后登录
2019-8-17
发表于 2019-4-7 20:32:43 | 显示全部楼层

这东西我收了!谢谢楼主!中国高清论坛真好!
回复 支持 反对

使用道具 举报

永恒神话

高清币
27651
金钱
38367
鲜花
0
在线时间
932 小时
最后登录
2019-8-19
发表于 2019-4-7 20:33:15 | 显示全部楼层
楼主发贴辛苦了,谢谢楼主分享!我觉得中国高清论坛是注册对了!
回复 支持 反对

使用道具 举报

金鸡奖主角

高清币
1200
金钱
2118
鲜花
0
在线时间
162 小时
最后登录
2019-8-16
发表于 2019-4-7 20:37:35 | 显示全部楼层
楼主发贴辛苦了,谢谢楼主分享!我觉得中国高清论坛是注册对了!
回复 支持 反对

使用道具 举报

天王巨星

高清币
1069
金钱
1546
鲜花
0
在线时间
184 小时
最后登录
2019-8-18
发表于 2019-4-7 20:41:25 | 显示全部楼层
楼主发贴辛苦了,谢谢楼主分享!我觉得中国高清论坛是注册对了!
回复 支持 反对

使用道具 举报

金鸡奖主角

高清币
381
金钱
5258
鲜花
0
在线时间
1530 小时
最后登录
2019-8-18
发表于 2019-4-7 20:45:23 | 显示全部楼层
国家破产之日国家破产之日国家破产之日
回复 支持 反对

使用道具 举报

金鸡奖主角

高清币
296
金钱
3332
鲜花
0
在线时间
360 小时
最后登录
2019-8-16
发表于 2019-4-7 21:13:28 | 显示全部楼层
楼主发贴辛苦了,谢谢楼主分享!我觉得中国高清论坛是注册对了!
回复 支持 反对

使用道具 举报

金鸡奖主角

高清币
54
金钱
6352
鲜花
0
在线时间
1825 小时
最后登录
2019-8-18
发表于 2019-4-7 21:14:04 | 显示全部楼层
多謝樓主分享,永遠支持!
回复 支持 反对

使用道具 举报

影坛巨星

高清币
3206
金钱
7178
鲜花
0
在线时间
466 小时
最后登录
2019-5-15
发表于 2019-4-7 21:16:45 | 显示全部楼层
下来看看,感谢楼主发布。谢谢分享!
回复 支持 反对

使用道具 举报

懒得打字嘛,点击右侧快捷回复 【右侧内容,后台自定义】
您需要登录后才可以回帖 登录 | 立即注册

本版积分规则

QQ|手机版|小黑屋|中国高清论坛 ( 黔ICP备16007815号-1 )

GMT+8, 2019-8-19 09:28 , Processed in 0.087854 second(s), 25 queries .

Powered by Discuz! X3.4

© 2001-2017 Comsenz Inc.

快速回复 返回顶部 返回列表