请选择 进入手机版 | 继续访问电脑版

中国高清论坛

 找回密码
 立即注册
搜索
查看: 17279|回复: 2598

[恐怖片] 人面鱼:红衣小女孩外传 [繁简英字幕] 2018.CHINESE.1080p.BluRay.x264-WiKi 9.65 GiB

  [复制链接]

超级版主

高清币
16118
金钱
37517
鲜花
0
在线时间
11697 小时
最后登录
2019-6-26
发表于 2019-4-8 22:30:18 | 显示全部楼层 |阅读模式


◎译  名 人面鱼:红衣小女孩外传
◎片  名 The Devil Fish
◎年  代 2018
◎国  家 中国台湾
◎类  别 恐怖
◎语  言 普通话
◎IMDb评分 4.8/10 from 157 users
◎IMDb链接 https://www.imdb.com/title/tt9283056/
◎片  长 1 h 53 min
◎导  演 庄绚维 Hsuan Wei Chuang
◎主  演 郑人硕 Rexen Cheng
       徐若瑄
       吴至璿 Chaster Wu
       张书伟 Joe Chang
       龙劭华 Siu Wa Lung



◎简  介


  以台湾家喻户晓的乡野传说“”人面鱼“”为故事主轴,发展出魔神仔宇宙的外传故事,和《红衣小女孩》系列有联动。


  1. Video
  2. ID : 1
  3. Format : AVC
  4. Format/Info : Advanced Video Codec
  5. Format profile : [email]High@L4.1[/email]
  6. Format settings : CABAC / 5 Ref Frames
  7. Format settings, CABAC : Yes
  8. Format settings, ReFrames : 5 frames
  9. Codec ID : V_MPEG4/ISO/AVC
  10. Duration : 1 h 53 min
  11. Bit rate : 11.5 Mb/s
  12. Width : 1 920 pixels
  13. Height : 806 pixels
  14. Display aspect ratio : 2.40:1
  15. Frame rate mode : Constant
  16. Frame rate : 24.000 FPS
  17. Color space : YUV
  18. Chroma subsampling : 4:2:0
  19. Bit depth : 8 bits
  20. Scan type : Progressive
  21. Bits/(Pixel*Frame) : 0.309
  22. Stream size : 9.14 GiB (95%)
  23. Writing library : x264 core 157 r2969 d4099dd
  24. Encoding settings : cabac=1 / ref=5 / deblock=1:-3:-3 / analyse=0x3:0x133 / me=umh / subme=10 / psy=1 / psy_rd=1.00:0.00 / mixed_ref=1 / me_range=64 / chroma_me=1 / trellis=2 / 8x8dct=1 / cqm=0 / deadzone=21,11 / fast_pskip=0 / chroma_qp_offset=-2 / threads=24 / lookahead_threads=4 / sliced_threads=0 / nr=0 / decimate=0 / interlaced=0 / bluray_compat=0 / constrained_intra=0 / bframes=8 / b_pyramid=2 / b_adapt=2 / b_bias=0 / direct=3 / weightb=1 / open_gop=0 / weightp=2 / keyint=250 / keyint_min=24 / scenecut=40 / intra_refresh=0 / rc_lookahead=60 / rc=crf / mbtree=0 / crf=16.8 / qcomp=0.60 / qpmin=0 / qpmax=69 / qpstep=4 / vbv_maxrate=62500 / vbv_bufsize=78125 / crf_max=0.0 / nal_hrd=none / filler=0 / ip_ratio=1.30 / pb_ratio=1.20 / aq=3:0.80 / zones=51,892,crf=14/156742,161628,b=0.5
  25. Language : English
  26. Default : Yes
  27. Forced : No

  28. Audio
  29. ID : 2
  30. Format : AC-3
  31. Format/Info : Audio Coding 3
  32. Commercial name : Dolby Digital
  33. Codec ID : A_AC3
  34. Duration : 1 h 53 min
  35. Bit rate mode : Constant
  36. Bit rate : 640 kb/s
  37. Channel(s) : 6 channels
  38. Channel layout : L R C LFE Ls Rs
  39. Sampling rate : 48.0 kHz
  40. Frame rate : 31.250 FPS (1536 SPF)
  41. Bit depth : 16 bits
  42. Compression mode : Lossy
  43. Stream size : 522 MiB (5%)
  44. Language : Chinese
  45. Service kind : Complete Main
  46. Default : Yes
  47. Forced : No

  48. Text #1
  49. ID : 3
  50. Format : UTF-8
  51. Codec ID : S_TEXT/UTF8
  52. Codec ID/Info : UTF-8 Plain Text
  53. Duration : 1 h 52 min
  54. Bit rate : 22 b/s
  55. Count of elements : 741
  56. Stream size : 18.2 KiB (0%)
  57. Language : English
  58. Default : Yes
  59. Forced : Yes

  60. Text #2
  61. ID : 4
  62. Format : UTF-8
  63. Codec ID : S_TEXT/UTF8
  64. Codec ID/Info : UTF-8 Plain Text
  65. Duration : 1 h 51 min
  66. Bit rate : 17 b/s
  67. Count of elements : 749
  68. Stream size : 14.6 KiB (0%)
  69. Title : CHS
  70. Language : Chinese
  71. Default : No
  72. Forced : No

  73. Text #3
  74. ID : 5
  75. Format : UTF-8
  76. Codec ID : S_TEXT/UTF8
  77. Codec ID/Info : UTF-8 Plain Text
  78. Duration : 1 h 51 min
  79. Bit rate : 17 b/s
  80. Count of elements : 749
  81. Stream size : 14.6 KiB (0%)
  82. Title : CHT
  83. Language : Chinese
  84. Default : No
  85. Forced : No

  86. Menu
  87. 00:00:00.000 : en:00:00:00.000
  88. 00:10:43.125 : en:00:10:43.125
  89. 00:21:34.958 : en:00:21:34.958
  90. 00:29:52.083 : en:00:29:52.083
  91. 00:38:21.667 : en:00:38:21.667
  92. 00:49:06.333 : en:00:49:06.333
  93. 00:56:49.000 : en:00:56:49.000
  94. 01:05:01.417 : en:01:05:01.417
  95. 01:17:56.125 : en:01:17:56.125
  96. 01:25:34.500 : en:01:25:34.500
  97. 01:35:22.167 : en:01:35:22.167
  98. 01:44:01.583 : en:01:44:01.583
复制代码









游客,如果您要查看本帖隐藏内容请回复,您还可以免扣高清币免回复下载:https://www.85lou.com/plugin.php?id=wyfaka_url:url
回复

使用道具 举报

金鸡奖主角

高清币
152
金钱
3526
鲜花
0
在线时间
661 小时
最后登录
2019-6-23
发表于 2019-4-8 22:35:37 | 显示全部楼层
支持楼主共享好片,多谢了
回复 支持 2 反对 0

使用道具 举报

永恒神话

高清币
5623
金钱
10494
鲜花
0
在线时间
1416 小时
最后登录
2019-6-26
发表于 2019-4-8 22:35:03 | 显示全部楼层

这东西我收了!谢谢楼主!中国高清论坛真好!
回复 支持 2 反对 0

使用道具 举报

永恒神话

高清币
158
金钱
16965
鲜花
0
在线时间
1188 小时
最后登录
2019-6-26
发表于 2019-4-8 22:31:06 | 显示全部楼层

这个帖子不回对不起自己!我想我是一天也不能离开中国高清论坛
回复 支持 2 反对 0

使用道具 举报

禁止发言

高清币
7
金钱
11
鲜花
0
在线时间
1 小时
最后登录
2019-4-15
发表于 2019-4-14 19:27:46 | 显示全部楼层
提示: 作者被禁止或删除 内容自动屏蔽
回复 支持 2 反对 0

使用道具 举报

禁止发言

高清币
9
金钱
17
鲜花
0
在线时间
4 小时
最后登录
2019-4-18
发表于 2019-4-15 21:52:21 | 显示全部楼层
提示: 作者被禁止或删除 内容自动屏蔽
回复 支持 1 反对 0

使用道具 举报

跑龙套

高清币
8
金钱
10
鲜花
0
在线时间
0 小时
最后登录
2019-4-15
发表于 2019-4-15 14:45:12 | 显示全部楼层
很多资深老司机都在这:

http://8f3.club/portal.php?x=625933
回复 支持 1 反对 0

使用道具 举报

金鸡奖主角

高清币
438
金钱
4804
鲜花
0
在线时间
1669 小时
最后登录
2019-6-26
发表于 2019-4-8 22:35:51 | 显示全部楼层

楼主,我太崇拜你了!我想我是一天也不能离开中国高清论坛
回复 支持 反对

使用道具 举报

永恒神话

高清币
4691
金钱
23698
鲜花
0
在线时间
1891 小时
最后登录
2019-6-26
发表于 2019-4-8 22:38:10 | 显示全部楼层

楼主太厉害了!楼主,电影应该很好看我觉得中国高清论坛真是个好地方!
回复 支持 反对

使用道具 举报

金鸡奖主角

高清币
318
金钱
4557
鲜花
0
在线时间
559 小时
最后登录
2019-6-25
发表于 2019-4-8 22:41:03 | 显示全部楼层
感谢楼主分享精彩电影
回复 支持 反对

使用道具 举报

天王巨星

高清币
138
金钱
2068
鲜花
0
在线时间
572 小时
最后登录
2019-6-26
发表于 2019-4-8 22:42:58 | 显示全部楼层

这个帖子不回对不起自己!我想我是一天也不能离开中国高清论坛
回复 支持 反对

使用道具 举报

金鸡奖主角

高清币
252
金钱
5807
鲜花
0
在线时间
1037 小时
最后登录
2019-6-26
发表于 2019-4-8 22:43:26 | 显示全部楼层
中国高清论坛真好!
回复 支持 反对

使用道具 举报

高清发布组

高清币
1822
金钱
6070
鲜花
0
在线时间
2170 小时
最后登录
2019-6-26
发表于 2019-4-8 22:44:31 | 显示全部楼层
楼主发贴辛苦了,谢谢楼主分享!我觉得中国高清论坛是注册对了!
回复 支持 反对

使用道具 举报

懒得打字嘛,点击右侧快捷回复 【右侧内容,后台自定义】
您需要登录后才可以回帖 登录 | 立即注册

本版积分规则

QQ|手机版|小黑屋|中国高清论坛 ( 黔ICP备16007815号-1 )

GMT+8, 2019-6-26 19:49 , Processed in 0.069292 second(s), 30 queries .

Powered by Discuz! X3.4

© 2001-2017 Comsenz Inc.

快速回复 返回顶部 返回列表