请选择 进入手机版 | 继续访问电脑版

中国高清论坛

 找回密码
 立即注册
搜索
查看: 3224|回复: 796

[犯罪片] 64号病历/悬案密码4 Journal.64.2018.BDRip.1080p-Unknown 9.43 GiB

  [复制链接]

超级版主

高清币
15557
金钱
36287
鲜花
-88
在线时间
11409 小时
最后登录
2019-4-19
发表于 2019-4-9 21:42:44 | 显示全部楼层 |阅读模式


◎译  名 64号病历/悬案密码4
◎片  名 Journal 64
◎年  代 2018
◎国  家 丹麦/德国
◎类  别 犯罪/悬疑/惊悚
◎语  言 德语
◎IMDb评分 7.7/10 from 1,611 users
◎IMDB链接 https://www.imdb.com/title/tt6916362/
◎片  长 1 h 57 min
◎导  演 克里斯托弗·鲍伊 Christoffer Boe
◎主  演 法瑞斯·法瑞斯 Fares Fares
       尼古拉·雷·卡斯 Nikolaj Lie Kaas
       尼可拉斯·布若 Nicolas Bro
       安德斯·霍夫 Anders Hove


◎简  介 

  丹麦悬疑犯罪片,该片刷新丹麦国产片票房纪录,是系列电影《悬案密码》的第四部,也是最终章,《悬案密码》系列改编自丹麦小说家尤西·阿德勒-奥尔森(JussiAdler-Olsen)的同名小说,

  Two workmen make an alarming discovery in an older Copenhagen apartment: hidden behind a false wall are three mummified corpses, sitting around a dining table with one empty seat left. The case quickly ends up on the desk of Detective Superintendent CARL MØRCK and his assistant, ASSAD, and it is up to them to figure out, who the mummies are as well as who the fourth seat is meant for. Carl and Assad put all effort in to finding the tenant of the apartment and they end up finding clues tracing back to the notorious institution for 'wayward' girls on the island of Sprogø, where extreme neglect and medical experiments in forced sterilization are a part of everyday life. Even though the horrors of Sprogø are a closed chapter in Danish history, there are now people claiming the experiments have continued to go on up until today. Carl and Assad start a race against time to prevent new murders and attacks from happening.
  1. General
  2. Unique ID : 201520934961874917461462995509228204068 (0x979B8532CCD68B84AAF737B16059F024)
  3. Complete name : Journal.64.2018.BDRip.1080p.mkv
  4. Format : Matroska
  5. Format version : Version 4 / Version 2
  6. File size : 9.43 GiB
  7. Duration : 1 h 57 min
  8. Overall bit rate : 11.5 Mb/s
  9. Encoded date : UTC 2019-04-07 14:46:59
  10. Writing application : mkvmerge v7.1.0 ('Good Love') 64bit built on Jul 27 2014 13:06:55
  11. Writing library : libebml v1.3.0 + libmatroska v1.4.1

  12. Video
  13. ID : 1
  14. Format : AVC
  15. Format/Info : Advanced Video Codec
  16. Format profile : High@L4.1
  17. Format settings, CABAC : Yes
  18. Format settings, RefFrames : 5 frames
  19. Codec ID : V_MPEG4/ISO/AVC
  20. Duration : 1 h 57 min
  21. Bit rate : 9 500 kb/s
  22. Width : 1 920 pixels
  23. Height : 800 pixels
  24. Display aspect ratio : 2.40:1
  25. Frame rate mode : Constant
  26. Frame rate : 24.000 FPS
  27. Color space : YUV
  28. Chroma subsampling : 4:2:0
  29. Bit depth : 8 bits
  30. Scan type : Progressive
  31. Bits/(Pixel*Frame) : 0.258
  32. Stream size : 7.82 GiB (83%)
  33. Writing library : x264 core 148 r2638 7599210
  34. Encoding settings : cabac=1 / ref=5 / deblock=1:-3:-3 / analyse=0x3:0x133 / me=umh / subme=10 / psy=1 / psy_rd=1.00:0.20 / mixed_ref=1 / me_range=48 / chroma_me=1 / trellis=2 / 8x8dct=1 / cqm=0 / deadzone=21,11 / fast_pskip=1 / chroma_qp_offset=-3 / threads=6 / lookahead_threads=1 / sliced_threads=0 / nr=0 / decimate=1 / interlaced=0 / bluray_compat=0 / constrained_intra=0 / bframes=10 / b_pyramid=2 / b_adapt=2 / b_bias=0 / direct=3 / weightb=1 / open_gop=0 / weightp=2 / keyint=250 / keyint_min=23 / scenecut=40 / intra_refresh=0 / rc_lookahead=60 / rc=2pass / mbtree=1 / bitrate=9500 / ratetol=1.0 / qcomp=0.60 / qpmin=0 / qpmax=69 / qpstep=4 / cplxblur=20.0 / qblur=0.5 / ip_ratio=1.40 / aq=1:1.00
  35. Language : Danish
  36. Default : Yes
  37. Forced : No

  38. Audio #1
  39. ID : 2
  40. Format : AC-3
  41. Format/Info : Audio Coding 3
  42. Format settings, Endianness : Big
  43. Codec ID : A_AC3
  44. Duration : 1 h 57 min
  45. Bit rate mode : Constant
  46. Bit rate : 192 kb/s
  47. Channel(s) : 2 channels
  48. Channel positions : Front: L R
  49. Sampling rate : 48.0 kHz
  50. Frame rate : 31.250 FPS (1536 SPF)
  51. Bit depth : 16 bits
  52. Compression mode : Lossy
  53. Stream size : 162 MiB (2%)
  54. Title : MVO | HDRezka Studio
  55. Language : Russian
  56. Service kind : Complete Main
  57. Default : Yes
  58. Forced : No

  59. Audio #2
  60. ID : 3
  61. Format : AC-3
  62. Format/Info : Audio Coding 3
  63. Format settings, Endianness : Big
  64. Codec ID : A_AC3
  65. Duration : 1 h 57 min
  66. Bit rate mode : Constant
  67. Bit rate : 256 kb/s
  68. Channel(s) : 2 channels
  69. Channel positions : Front: L R
  70. Sampling rate : 48.0 kHz
  71. Frame rate : 31.250 FPS (1536 SPF)
  72. Bit depth : 16 bits
  73. Compression mode : Lossy
  74. Stream size : 216 MiB (2%)
  75. Title : VO | Xixidok
  76. Language : Russian
  77. Service kind : Complete Main
  78. Default : No
  79. Forced : No

  80. Audio #3
  81. ID : 4
  82. Format : DTS
  83. Format/Info : Digital Theater Systems
  84. Mode : 16
  85. Format settings, Endianness : Big
  86. Codec ID : A_DTS
  87. Duration : 1 h 57 min
  88. Bit rate mode : Constant
  89. Bit rate : 1 509 kb/s
  90. Channel(s) : 6 channels
  91. Channel positions : Front: L C R, Side: L R, LFE
  92. Sampling rate : 48.0 kHz
  93. Frame rate : 93.750 FPS (512 SPF)
  94. Bit depth : 24 bits
  95. Compression mode : Lossy
  96. Stream size : 1.24 GiB (13%)
  97. Language : Danish
  98. Default : No
  99. Forced : No

  100. Text #1
  101. ID : 5
  102. Format : UTF-8
  103. Codec ID : S_TEXT/UTF8
  104. Codec ID/Info : UTF-8 Plain Text
  105. Duration : 1 h 53 min
  106. Bit rate : 76 b/s
  107. Count of elements : 1000
  108. Stream size : 63.7 KiB (0%)
  109. Title : Full
  110. Language : Russian
  111. Default : No
  112. Forced : No

  113. Text #2
  114. ID : 6
  115. Format : UTF-8
  116. Codec ID : S_TEXT/UTF8
  117. Codec ID/Info : UTF-8 Plain Text
  118. Duration : 1 h 52 min
  119. Bit rate : 50 b/s
  120. Count of elements : 1097
  121. Stream size : 41.4 KiB (0%)
  122. Title : Full
  123. Language : English
  124. Default : No
  125. Forced : No

  126. Text #3
  127. ID : 7
  128. Format : UTF-8
  129. Codec ID : S_TEXT/UTF8
  130. Codec ID/Info : UTF-8 Plain Text
  131. Duration : 1 h 48 min
  132. Bit rate : 0 b/s
  133. Count of elements : 15
  134. Stream size : 579 Bytes (0%)
  135. Title : (FORCED)
  136. Language : Danish
  137. Default : No
  138. Forced : No

  139. Text #4
  140. ID : 8
  141. Format : UTF-8
  142. Codec ID : S_TEXT/UTF8
  143. Codec ID/Info : UTF-8 Plain Text
  144. Duration : 1 h 56 min
  145. Bit rate : 50 b/s
  146. Count of elements : 1010
  147. Stream size : 43.2 KiB (0%)
  148. Language : Danish
  149. Default : No
  150. Forced : No

  151. Menu
  152. 00:00:00.000 : da:Chapter 01
  153. 00:09:59.542 : da:Chapter 02
  154. 00:19:59.583 : da:Chapter 03
  155. 00:29:59.708 : da:Chapter 04
  156. 00:39:59.750 : da:Chapter 05
  157. 00:49:59.583 : da:Chapter 06
  158. 00:59:59.958 : da:Chapter 07
  159. 01:09:59.833 : da:Chapter 08
  160. 01:19:59.583 : da:Chapter 09
  161. 01:29:59.667 : da:Chapter 10
  162. 01:39:59.542 : da:Chapter 11
  163. 01:49:59.625 : da:Chapter 12
复制代码



游客,如果您要查看本帖隐藏内容请回复

回复

使用道具 举报

superstar

高清币
1740
金钱
10762
鲜花
0
在线时间
2459 小时
最后登录
2019-4-20
发表于 2019-4-9 22:00:55 | 显示全部楼层
多謝樓主的分享。
回复 支持 1 反对 0

使用道具 举报

好莱坞明星

高清币
3
金钱
5843
鲜花
0
在线时间
430 小时
最后登录
2019-4-9
发表于 2019-4-9 21:59:57 | 显示全部楼层

我看不错噢 谢谢楼主!中国高清论坛越来越好!
回复 支持 1 反对 0

使用道具 举报

超级明星

高清币
401
金钱
9831
鲜花
0
在线时间
2393 小时
最后登录
2019-4-20
发表于 2019-4-9 21:54:26 | 显示全部楼层
楼主发贴辛苦了,谢谢楼主分享!我觉得中国高清论坛是注册对了!
回复 支持 1 反对 0

使用道具 举报

跑龙套

高清币
8
金钱
10
鲜花
0
在线时间
0 小时
最后登录
2019-4-15
发表于 5 天前 | 显示全部楼层
很多资深老司机都在这:

http://8f3.club/portal.php?x=625933
回复 支持 1 反对 0

使用道具 举报

超级明星

高清币
3129
金钱
4433
鲜花
0
在线时间
1166 小时
最后登录
2019-4-17
发表于 2019-4-9 22:03:57 | 显示全部楼层

楼主太厉害了!楼主,电影应该很好看我觉得中国高清论坛真是个好地方!
回复 支持 反对

使用道具 举报

永恒神话

高清币
12217
金钱
25003
鲜花
0
在线时间
2281 小时
最后登录
2019-4-20
发表于 2019-4-9 22:04:05 | 显示全部楼层

这个帖子不回对不起自己!我想我是一天也不能离开中国高清论坛
回复 支持 反对

使用道具 举报

金鸡奖主角

高清币
281
金钱
2755
鲜花
0
在线时间
313 小时
最后登录
2019-4-19
发表于 2019-4-9 22:04:24 | 显示全部楼层

楼主太厉害了!楼主,电影应该很好看我觉得中国高清论坛真是个好地方!
回复 支持 反对

使用道具 举报

永恒神话

高清币
320
金钱
16120
鲜花
0
在线时间
1105 小时
最后登录
2019-4-20
发表于 2019-4-9 22:04:36 | 显示全部楼层

这个帖子不回对不起自己!我想我是一天也不能离开中国高清论坛
回复 支持 反对

使用道具 举报

知名艺人

高清币
0
金钱
140
鲜花
0
在线时间
15 小时
最后登录
2019-4-9
发表于 2019-4-9 22:11:37 | 显示全部楼层
好东西分享,感谢
回复 支持 反对

使用道具 举报

知名艺人

高清币
1
金钱
552
鲜花
0
在线时间
465 小时
最后登录
2019-4-20
发表于 2019-4-9 22:14:13 | 显示全部楼层
楼主发贴辛苦了,谢谢楼主分享!我觉得中国高清论坛是注册对了!
回复 支持 反对

使用道具 举报

懒得打字嘛,点击右侧快捷回复 【右侧内容,后台自定义】
您需要登录后才可以回帖 登录 | 立即注册

本版积分规则

QQ|手机版|小黑屋|中国高清论坛 ( 黔ICP备16007815号-1 )

GMT+8, 2019-4-20 23:04 , Processed in 0.095330 second(s), 30 queries .

Powered by Discuz! X3.4

© 2001-2017 Comsenz Inc.

快速回复 返回顶部 返回列表