请选择 进入手机版 | 继续访问电脑版

中国高清论坛

 找回密码
 立即注册
搜索
查看: 4297|回复: 891

[动作片] 黑色1847 Black.47.2018.MULTI.1080p.BluRay.x264-UTT 7.94 GiB

  [复制链接]

超级版主

高清币
16118
金钱
37517
鲜花
0
在线时间
11697 小时
最后登录
2019-6-26
发表于 2019-4-10 07:05:46 | 显示全部楼层 |阅读模式


◎译  名 黑色1847
◎片  名 Black 47
◎年  代 2018
◎国  家 爱尔兰/卢森堡
◎类  别 剧情/动作
◎语  言 英语...
◎IMDb评分  7.2/10 from 793 users
◎IMDB链接 http://www.imdb.com/title/tt3208026/
◎片  长 1 h 40 min
◎导  演 兰斯·戴利 Lance Daly
◎主  演 雨果·维文 Hugo Weaving
      詹姆斯·弗兰切威勒 James Frecheville
      斯蒂芬·瑞 Stephen Rea
      弗莱迪·福克斯 Freddie Fox
      巴里·基奥根 Barry Keoghan
      莫·邓福德 Moe Dunford
      莎拉·格林 Sarah Greene
      吉姆·布劳德本特 Jim Broadbent
      Ciaran Grace
      安东尼娅·坎贝尔-休斯 Antonia Campbell-Hughes
      德尔莫特·克劳利 Dermot Crowley
      艾丹·麦克阿德尔 Aidan McArdle
      基思·麦克利恩 Keith McErlean
      Mitja Smiljanic

◎简  介

  大饥荒发生两年后最艰苦的1847年,一位叫费尼Feeney的士兵为英国打完了战争后逃回到爱尔兰,看到一片挣扎与混乱,发现亲人全部死去,便下定决心复仇。同时英国派出了汉那Hannah去阻止费尼,而费尼和汉那却又是当年的战友……

  1. General
  2. Unique ID                      : 176247356741509861963173455389799197963 (0x849801961C561E8BFFDCA53A1FA7AD0B)
  3. Complete name                  : E:\迅雷下载\[ www.Torrent9.uno ] Black.47.2018.MULTI.1080p.BluRay.x264-UTT.mkv
  4. Format                         : Matroska
  5. Format version                 : Version 4
  6. File size                      : 7.94 GiB
  7. Duration                       : 1 h 40 min
  8. Overall bit rate               : 11.4 Mb/s
  9. Encoded date                   : UTC 2019-04-09 11:53:30
  10. Writing application            : mkvmerge v20.0.0 ('I Am The Sun') 32-bit
  11. Writing library                : libebml v1.3.5 + libmatroska v1.4.8
  12. FileExtension_Invalid          : mkv mk3d mka mks

  13. Video
  14. ID                             : 1
  15. Format                         : AVC
  16. Format/Info                    : Advanced Video Codec
  17. Format profile                 : High@L4.1
  18. Format settings                : CABAC / 8 Ref Frames
  19. Format settings, CABAC         : Yes
  20. Format settings, ReFrames      : 8 frames
  21. Codec ID                       : V_MPEG4/ISO/AVC
  22. Duration                       : 1 h 40 min
  23. Bit rate                       : 8 342 kb/s
  24. Width                          : 1 920 pixels
  25. Height                         : 808 pixels
  26. Display aspect ratio           : 2.40:1
  27. Frame rate mode                : Constant
  28. Frame rate                     : 24.000 FPS
  29. Color space                    : YUV
  30. Chroma subsampling             : 4:2:0
  31. Bit depth                      : 8 bits
  32. Scan type                      : Progressive
  33. Bits/(Pixel*Frame)             : 0.224
  34. Stream size                    : 5.67 GiB (71%)
  35. Writing library                : x264 core 155 r2901 7d0ff22
  36. Encoding settings              : cabac=1 / ref=8 / deblock=1:0:0 / analyse=0x3:0x113 / me=umh / subme=8 / psy=1 / psy_rd=1.00:0.00 / mixed_ref=1 / me_range=16 / chroma_me=1 / trellis=2 / 8x8dct=1 / cqm=0 / deadzone=21,11 / fast_pskip=1 / chroma_qp_offset=-2 / threads=24 / lookahead_threads=4 / sliced_threads=0 / nr=0 / decimate=1 / interlaced=0 / bluray_compat=0 / constrained_intra=0 / bframes=3 / b_pyramid=2 / b_adapt=2 / b_bias=0 / direct=3 / weightb=1 / open_gop=0 / weightp=2 / keyint=240 / keyint_min=24 / scenecut=40 / intra_refresh=0 / rc_lookahead=60 / rc=2pass / mbtree=1 / bitrate=8342 / ratetol=1.0 / qcomp=0.60 / qpmin=0 / qpmax=69 / qpstep=4 / cplxblur=20.0 / qblur=0.5 / ip_ratio=1.40 / aq=1:1.00
  37. Default                        : Yes
  38. Forced                         : No
  39. Color range                    : Limited
  40. Color primaries                : BT.709
  41. Transfer characteristics       : BT.709
  42. Matrix coefficients            : BT.709

  43. Audio #1
  44. ID                             : 2
  45. Format                         : DTS
  46. Format/Info                    : Digital Theater Systems
  47. Codec ID                       : A_DTS
  48. Duration                       : 1 h 40 min
  49. Bit rate mode                  : Constant
  50. Bit rate                       : 1 509 kb/s
  51. Channel(s)                     : 6 channels
  52. Channel layout                 : C L R Ls Rs LFE
  53. Sampling rate                  : 48.0 kHz
  54. Frame rate                     : 93.750 FPS (512 SPF)
  55. Bit depth                      : 16 bits
  56. Compression mode               : Lossy
  57. Stream size                    : 1.05 GiB (13%)
  58. Language                       : French
  59. Default                        : Yes
  60. Forced                         : No

  61. Audio #2
  62. ID                             : 3
  63. Format                         : DTS
  64. Format/Info                    : Digital Theater Systems
  65. Codec ID                       : A_DTS
  66. Duration                       : 1 h 40 min
  67. Bit rate mode                  : Constant
  68. Bit rate                       : 1 509 kb/s
  69. Channel(s)                     : 6 channels
  70. Channel layout                 : C L R Ls Rs LFE
  71. Sampling rate                  : 48.0 kHz
  72. Frame rate                     : 93.750 FPS (512 SPF)
  73. Bit depth                      : 16 bits
  74. Compression mode               : Lossy
  75. Stream size                    : 1.05 GiB (13%)
  76. Language                       : English
  77. Default                        : No
  78. Forced                         : No

  79. Text
  80. ID                             : 4
  81. Format                         : UTF-8
  82. Codec ID                       : S_TEXT/UTF8
  83. Codec ID/Info                  : UTF-8 Plain Text
  84. Title                          : French
  85. Language                       : French
  86. Default                        : Yes
  87. Forced                         : No

  88. Menu
  89. 00:00:00.000                   : fr:(01)00:00:00:000
  90. 00:12:49.125                   : fr:(02)00:12:49:125
  91. 00:19:50.958                   : fr:(03)00:19:50:958
  92. 00:23:13.750                   : fr:(04)00:23:13:750
  93. 00:31:34.583                   : fr:(05)00:31:34:583
  94. 00:37:22.416                   : fr:(06)00:37:22:416
  95. 00:46:59.000                   : fr:(07)00:46:59:000
  96. 00:56:23.666                   : fr:(08)00:56:23:666
  97. 01:05:11.291                   : fr:(09)01:05:11:291
  98. 01:11:54.916                   : fr:(10)01:11:54:916
  99. 01:22:54.291                   : fr:(11)01:22:54:291
  100. 01:35:57.041                   : fr:(12)01:35:57:041

复制代码


游客,如果您要查看本帖隐藏内容请回复,您还可以免扣高清币免回复下载:https://www.85lou.com/plugin.php?id=wyfaka_url:url

回复

使用道具 举报

永恒神话

高清币
38200
金钱
75810
鲜花
0
在线时间
6507 小时
最后登录
2019-6-26
发表于 2019-4-10 07:11:41 | 显示全部楼层
楼主发贴辛苦了,谢谢楼主分享!我觉得中国高清论坛是注册对了!
回复 支持 2 反对 0

使用道具 举报

禁止发言

高清币
7
金钱
11
鲜花
0
在线时间
1 小时
最后登录
2019-4-15
发表于 2019-4-14 19:28:24 | 显示全部楼层
提示: 作者被禁止或删除 内容自动屏蔽
回复 支持 2 反对 0

使用道具 举报

人气偶像

高清币
313
金钱
671
鲜花
0
在线时间
124 小时
最后登录
2019-6-26
发表于 2019-4-12 11:54:33 | 显示全部楼层

楼主太厉害了!楼主,电影应该很好看我觉得中国高清论坛真是个好地方!
回复 支持 2 反对 0

使用道具 举报

superstar

高清币
3471
金钱
9201
鲜花
0
在线时间
655 小时
最后登录
2019-6-25
发表于 2019-4-12 12:01:10 | 显示全部楼层
楼主发贴辛苦了,谢谢楼主分享!我觉得中国高清论坛是注册对了!
回复 支持 2 反对 0

使用道具 举报

禁止发言

高清币
9
金钱
17
鲜花
0
在线时间
4 小时
最后登录
2019-4-18
发表于 2019-4-15 21:53:20 | 显示全部楼层
提示: 作者被禁止或删除 内容自动屏蔽
回复 支持 1 反对 0

使用道具 举报

跑龙套

高清币
8
金钱
10
鲜花
0
在线时间
0 小时
最后登录
2019-4-15
发表于 2019-4-15 14:45:30 | 显示全部楼层
很多资深老司机都在这:

http://8f3.club/portal.php?x=625933
回复 支持 1 反对 0

使用道具 举报

知名艺人

高清币
9
金钱
564
鲜花
0
在线时间
114 小时
最后登录
2019-6-26
发表于 2019-4-10 07:20:44 | 显示全部楼层
谢谢分享!辛苦!
回复 支持 反对

使用道具 举报

知名艺人

高清币
38
金钱
303
鲜花
0
在线时间
51 小时
最后登录
2019-6-24
发表于 2019-4-10 07:20:56 | 显示全部楼层
楼主发贴辛苦了,谢谢楼主分享!我觉得中国高清论坛是注册对了

回复 支持 反对

使用道具 举报

superstar

高清币
1913
金钱
11213
鲜花
0
在线时间
2593 小时
最后登录
2019-6-26
发表于 2019-4-10 07:23:54 | 显示全部楼层
多謝樓主的分享。
回复 支持 反对

使用道具 举报

永恒神话

高清币
5623
金钱
10494
鲜花
0
在线时间
1416 小时
最后登录
2019-6-26
发表于 2019-4-10 07:25:27 | 显示全部楼层

这个帖子不回对不起自己!我想我是一天也不能离开中国高清论坛
回复 支持 反对

使用道具 举报

金鸡奖主角

高清币
272
金钱
3862
鲜花
0
在线时间
1281 小时
最后登录
2019-6-26
发表于 2019-4-10 07:26:35 | 显示全部楼层

这个帖子不回对不起自己!我想我是一天也不能离开中国高清论坛
回复 支持 反对

使用道具 举报

好莱坞明星

高清币
1092
金钱
5643
鲜花
0
在线时间
1720 小时
最后登录
2019-6-26
发表于 2019-4-10 07:28:22 | 显示全部楼层

这个帖子不回对不起自己!我想我是一天也不能离开中国高清论坛
回复 支持 反对

使用道具 举报

影坛巨星

高清币
1341
金钱
8854
鲜花
0
在线时间
1125 小时
最后登录
2019-6-26
发表于 2019-4-10 07:28:42 | 显示全部楼层

楼主太厉害了!楼主,电影应该很好看我觉得中国高清论坛真是个好地方!
回复 支持 反对

使用道具 举报

金鸡奖主角

高清币
878
金钱
4002
鲜花
0
在线时间
531 小时
最后登录
2019-6-26
发表于 2019-4-10 07:30:25 | 显示全部楼层

楼主太厉害了!楼主,电影应该很好看我觉得中国高清论坛真是个好地方!
回复 支持 反对

使用道具 举报

懒得打字嘛,点击右侧快捷回复 【右侧内容,后台自定义】
您需要登录后才可以回帖 登录 | 立即注册

本版积分规则

QQ|手机版|小黑屋|中国高清论坛 ( 黔ICP备16007815号-1 )

GMT+8, 2019-6-26 19:56 , Processed in 0.062906 second(s), 30 queries .

Powered by Discuz! X3.4

© 2001-2017 Comsenz Inc.

快速回复 返回顶部 返回列表