请选择 进入手机版 | 继续访问电脑版

中国高清论坛

 找回密码
 立即注册
搜索
查看: 3539|回复: 500

[剧情片] 过错/激情假期 Fallo.2003.BDRip.720p.by.msltel 4.02 GiB

  [复制链接]

超级版主

高清币
16731
金钱
38852
鲜花
0
在线时间
11977 小时
最后登录
2019-8-19
发表于 2019-4-11 21:10:33 | 显示全部楼层 |阅读模式



◎译  名 过错/激情假期
◎片  名 Fallo!                          
◎年  代 2003
◎国  家 意大利
◎类  别 剧情/爱情/情色
◎语  言 意大利语
◎IMDb评分 5.2/10 from 2,079 users
◎IMDB链接 https://www.imdb.com/title/tt0372909/
◎片  长 1 h 28 min
◎导  演 丁度·巴拉斯 Tinto Brass
◎主  演 Sara Cosmi
       Silvia Rossi
       拉菲拉·庞佐 Raffaella Ponzo



◎简  介

  影片由六个短片组成。

  《礼物》:一对情侣来到酒店度假,男子情深意切的允诺要给女子一个惊喜,之后,满怀期待的女子眼前出现礼物竟然是……《阴谋》:一对貌合神离的夫妻有这各自的情人,而事实却并不像表面上所看到的这么简单。《两个变态和一个女佣》:平凡的女佣游走在主人和男友之间,分裂的生活让她不知该何去何从。《性爱海滩》:在亘古不变的海滩上,一对情侣吵架后又和好。《摄影师的苦恼》:无法和女友进行鱼水之欢的摄影师居然意外的在派对上找到了真爱。《偷窥狂》:拜金女店员为了利益搭上了一个有钱男人,却不知自己的所作所为都被一双隐秘的眼睛看在眼里。


  1. Общее
  2. Уникальный идентификатор : 180227016006047850283099187009756529986 (0x879675EFDE76FBEE963666768CAB0542)
  3. Полное имя : D:\Video\О, женщины.2003.BDRip 720p by msltel.mkv
  4. Формат : Matroska
  5. Версия формата : Version 4
  6. Размер файла : 4,02 Гбайт
  7. Продолжительность : 1 ч. 28 м.
  8. Общий поток : 6474 Кбит/сек
  9. Название фильма : Rip by msltel
  10. Дата кодирования : UTC 2019-04-11 01:05:55
  11. Программа кодирования : mkvmerge v8.2.0 ('World of Adventure') 64bit
  12. Библиотека кодирования : libebml v1.3.1 + libmatroska v1.4.2

  13. Видео
  14. Идентификатор : 1
  15. Формат : AVC
  16. Формат/Информация : Advanced Video Codec
  17. Профиль формата : High@L4.1
  18. Настройки формата : CABAC / 9 Ref Frames
  19. Параметр CABAC формата : Да
  20. Параметр RefFrames формата : 9 кадров
  21. Идентификатор кодека : V_MPEG4/ISO/AVC
  22. Продолжительность : 1 ч. 28 м.
  23. Битрейт : 6088 Кбит/сек
  24. Ширина : 1280 пикселей
  25. Высота : 720 пикселей
  26. Соотношение сторон : 16:9
  27. Режим частоты кадров : Постоянный
  28. Частота кадров : 23,976 (24000/1001) кадра/сек
  29. Цветовое пространство : YUV
  30. Субдискретизация насыщенности : 4:2:0
  31. Битовая глубина : 8 бит
  32. Тип развёртки : Прогрессивная
  33. Бит/(Пиксели*Кадры) : 0.276
  34. Размер потока : 3,78 Гбайт (94%)
  35. Библиотека кодирования : x264 core 157 r2935 545de2f
  36. Настройки программы : cabac=1 / ref=9 / deblock=1:-2:-2 / analyse=0x3:0x113 / me=umh / subme=11 / psy=1 / psy_rd=1.00:0.15 / mixed_ref=1 / me_range=32 / chroma_me=1 / trellis=2 / 8x8dct=1 / cqm=0 / deadzone=21,11 / fast_pskip=0 / chroma_qp_offset=-3 / threads=6 / lookahead_threads=1 / sliced_threads=0 / nr=0 / decimate=1 / interlaced=0 / bluray_compat=0 / constrained_intra=0 / bframes=6 / b_pyramid=2 / b_adapt=2 / b_bias=0 / direct=1 / weightb=1 / open_gop=0 / weightp=2 / keyint=230 / keyint_min=23 / scenecut=40 / intra_refresh=0 / rc_lookahead=40 / rc=crf / mbtree=1 / crf=16.5 / qcomp=0.60 / qpmin=0 / qpmax=69 / qpstep=4 / vbv_maxrate=50000 / vbv_bufsize=62500 / crf_max=0.0 / nal_hrd=none / filler=0 / ip_ratio=1.40 / aq=1:1.00
  37. Язык : Italian
  38. Default : Да
  39. Forced : Нет

  40. Аудио #1
  41. Идентификатор : 2
  42. Формат : AC-3
  43. Формат/Информация : Audio Coding 3
  44. Коммерческое название : Dolby Digital
  45. Идентификатор кодека : A_AC3
  46. Продолжительность : 1 ч. 28 м.
  47. Вид битрейта : Постоянный
  48. Битрейт : 192 Кбит/сек
  49. Каналы : 2 канала
  50. Channel layout : L R
  51. Частота : 48,0 КГц
  52. Частота кадров : 31,250 кадров/сек (1536 SPF)
  53. Битовая глубина : 16 бит
  54. Метод сжатия : С потерями
  55. Размер потока : 122 Мбайт (3%)
  56. Заголовок : MVO
  57. Язык : Russian
  58. ServiceKind/String : Complete Main
  59. Default : Да
  60. Forced : Нет

  61. Аудио #2
  62. Идентификатор : 3
  63. Формат : AC-3
  64. Формат/Информация : Audio Coding 3
  65. Коммерческое название : Dolby Digital
  66. Идентификатор кодека : A_AC3
  67. Продолжительность : 1 ч. 28 м.
  68. Вид битрейта : Постоянный
  69. Битрейт : 192 Кбит/сек
  70. Каналы : 2 канала
  71. Channel layout : L R
  72. Частота : 48,0 КГц
  73. Частота кадров : 31,250 кадров/сек (1536 SPF)
  74. Битовая глубина : 16 бит
  75. Метод сжатия : С потерями
  76. Размер потока : 122 Мбайт (3%)
  77. Заголовок : original
  78. Язык : Italian
  79. ServiceKind/String : Complete Main
  80. Default : Нет
  81. Forced : Нет

  82. Текст
  83. Идентификатор : 4
  84. Формат : UTF-8
  85. Идентификатор кодека : S_TEXT/UTF8
  86. Идентификатор кодека/Информация : UTF-8 Plain Text
  87. Продолжительность : 1 ч. 26 м.
  88. Битрейт : 68 бит/сек
  89. ElementCount : 798
  90. Размер потока : 43,6 Кбайт (0%)
  91. Заголовок : русские
  92. Язык : Russian
  93. Default : Нет
  94. Forced : Нет

  95. Меню
  96. 00:00:00.000 : :Глава 01
  97. 00:18:54.550 : :Глава 02
  98. 00:30:38.795 : :Глава 03
  99. 00:42:17.243 : :Глава 04
  100. 00:52:18.760 : :Глава 05
  101. 01:12:54.244 : :Глава 06
复制代码


游客,如果您要查看本帖隐藏内容请回复,您还可以免扣高清币免回复下载:https://www.85lou.com/plugin.php?id=wyfaka_url:url


回复

使用道具 举报

永恒神话

高清币
514
金钱
18636
鲜花
0
在线时间
2516 小时
最后登录
2019-8-19
发表于 2019-4-11 21:15:58 | 显示全部楼层

楼主太厉害了!楼主,电影应该很好看我觉得中国高清论坛真是个好地方!
回复 支持 反对

使用道具 举报

超级明星

高清币
2137
金钱
5110
鲜花
0
在线时间
725 小时
最后登录
2019-8-18
发表于 2019-4-11 21:16:35 | 显示全部楼层

这东西我收了!谢谢楼主!中国高清论坛真好!
回复 支持 反对

使用道具 举报

永恒神话

高清币
10664
金钱
16345
鲜花
0
在线时间
1069 小时
最后登录
2019-8-18
发表于 2019-4-11 21:16:36 | 显示全部楼层

感谢楼主的无私分享!要想中国高清论坛好 就靠你我他
回复 支持 反对

使用道具 举报

影坛巨星

高清币
3206
金钱
7178
鲜花
0
在线时间
466 小时
最后登录
2019-5-15
发表于 2019-4-11 21:20:12 | 显示全部楼层
不错,下来看看,感谢楼主分享!
回复 支持 反对

使用道具 举报

人气偶像

高清币
8
金钱
1752
鲜花
0
在线时间
203 小时
最后登录
2019-8-1
发表于 2019-4-11 21:33:31 | 显示全部楼层
楼主发贴辛苦了,谢谢楼主分享!我觉得中国高清论坛是注册对了!
回复 支持 反对

使用道具 举报

金鸡奖主角

高清币
1200
金钱
2118
鲜花
0
在线时间
162 小时
最后登录
2019-8-16
发表于 2019-4-11 21:35:03 | 显示全部楼层
楼主发贴辛苦了,谢谢楼主分享!我觉得中国高清论坛是注册对了!
回复 支持 反对

使用道具 举报

知名艺人

高清币
1
金钱
445
鲜花
0
在线时间
111 小时
最后登录
2019-8-12
发表于 2019-4-11 21:44:43 | 显示全部楼层
x'xxxl谢谢LZ
回复 支持 反对

使用道具 举报

知名艺人

高清币
1
金钱
445
鲜花
0
在线时间
111 小时
最后登录
2019-8-12
发表于 2019-4-11 21:45:10 | 显示全部楼层
谢谢LZ谢谢LZ
回复 支持 反对

使用道具 举报

好莱坞明星

高清币
416
金钱
5883
鲜花
0
在线时间
654 小时
最后登录
2019-8-19
发表于 2019-4-11 21:45:46 | 显示全部楼层
这东西我收了!谢谢楼主!中国高清论坛真好!
回复 支持 反对

使用道具 举报

懒得打字嘛,点击右侧快捷回复 【右侧内容,后台自定义】
您需要登录后才可以回帖 登录 | 立即注册

本版积分规则

QQ|手机版|小黑屋|中国高清论坛 ( 黔ICP备16007815号-1 )

GMT+8, 2019-8-19 10:13 , Processed in 0.057050 second(s), 25 queries .

Powered by Discuz! X3.4

© 2001-2017 Comsenz Inc.

快速回复 返回顶部 返回列表