请选择 进入手机版 | 继续访问电脑版

中国高清论坛

 找回密码
 立即注册
搜索
查看: 5435|回复: 1130

[动作片] 战士 Warfighter.2018.1080p.WEB-DL.DD5.1.H264-FGT 3.63 GiB

  [复制链接]

超级版主

高清币
15565
金钱
36307
鲜花
-88
在线时间
11417 小时
最后登录
2019-4-23
发表于 2019-4-12 18:38:56 | 显示全部楼层 |阅读模式


◎译  名 战士
◎片  名 Warfighter
◎年  代 2018
◎国  家 美国
◎类  别 动作/剧情/爱情/战争
◎语  言 英语
◎IMDb评分 8.5/10 from 522 users
◎IMDb链接 https://www.imdb.com/title/tt4524418/
◎片  长 1 h 45 min
◎导  演 杰瑞·G·安格罗 Jerry G. Angelo
◎主  演 杰瑞·G·安格罗 Jerry G. Angelo
       保罗·罗根 Paul Logan
       小伊萨克·C.辛格尔顿 Isaac C. Singleton Jr.
       Victoria Clare



◎简  介

  Rusty Wittenburg is a Navy SEAL struggling to balance his family life and his job. He fights daily to maintain the line between reality and the nightmares his PTSD conjures up for him. Dedicated to his team and his mission, he is willing to give the ultimate sacrifice for his fellow brothers and teammates.


  1. Video
  2. ID : 1
  3. Format : AVC
  4. Format/Info : Advanced Video Codec
  5. Format profile : High@L4
  6. Format settings : CABAC / 5 Ref Frames
  7. Format settings, CABAC : Yes
  8. Format settings, ReFrames : 5 frames
  9. Codec ID : V_MPEG4/ISO/AVC
  10. Duration : 1 h 45 min
  11. Bit rate : 4 542 kb/s
  12. Width : 1 920 pixels
  13. Height : 804 pixels
  14. Display aspect ratio : 2.40:1
  15. Frame rate mode : Constant
  16. Frame rate : 24.000 FPS
  17. Color space : YUV
  18. Chroma subsampling : 4:2:0
  19. Bit depth : 8 bits
  20. Scan type : Progressive
  21. Bits/(Pixel*Frame) : 0.123
  22. Stream size : 3.35 GiB (92%)
  23. Title : Warfighter.2018.1080p.WEB-DL.DD5.1.H264-FGT
  24. Language : English
  25. Default : Yes
  26. Forced : No
  27. Color range : Limited
  28. Color primaries : BT.709
  29. Transfer characteristics : BT.709
  30. Matrix coefficients : BT.709

  31. Audio
  32. ID : 2
  33. Format : AC-3
  34. Format/Info : Audio Coding 3
  35. Commercial name : Dolby Digital
  36. Codec ID : A_AC3
  37. Duration : 1 h 45 min
  38. Bit rate mode : Constant
  39. Bit rate : 384 kb/s
  40. Channel(s) : 6 channels
  41. Channel layout : L R C LFE Ls Rs
  42. Sampling rate : 48.0 kHz
  43. Frame rate : 31.250 FPS (1536 SPF)
  44. Bit depth : 16 bits
  45. Compression mode : Lossy
  46. Stream size : 290 MiB (8%)
  47. Title : Warfighter.2018.1080p.WEB-DL.DD5.1.H264-FGT
  48. Language : English
  49. Service kind : Complete Main
  50. Default : Yes
  51. Forced : No

  52. Menu
  53. 00:00:00.000 : en:Chapter 1
  54. 00:10:12.612 : en:Chapter 2
  55. 00:17:18.037 : en:Chapter 3
  56. 00:30:26.825 : en:Chapter 4
  57. 00:40:31.429 : en:Chapter 5
  58. 00:48:23.901 : en:Chapter 6
  59. 00:57:46.463 : en:Chapter 7
  60. 01:09:34.170 : en:Chapter 8
  61. 01:21:19.875 : en:Chapter 9
  62. 01:30:56.451 : en:Chapter 10
  63. 01:41:20.074 : en:Chapter 11
复制代码







游客,如果您要查看本帖隐藏内容请回复
回复

使用道具 举报

天王巨星

高清币
1
金钱
2931
鲜花
0
在线时间
725 小时
最后登录
2019-4-22
发表于 2019-4-13 06:53:06 | 显示全部楼层
thanks very much
回复 支持 2 反对 0

使用道具 举报

天王巨星

高清币
5
金钱
2059
鲜花
0
在线时间
435 小时
最后登录
2019-4-22
发表于 2019-4-13 07:03:40 | 显示全部楼层

我看不错噢 谢谢楼主!中国高清论坛越来越好!
回复 支持 2 反对 0

使用道具 举报

superstar

高清币
2897
金钱
8578
鲜花
0
在线时间
1363 小时
最后登录
2019-4-21
发表于 2019-4-13 07:05:17 | 显示全部楼层
楼主发贴辛苦了,谢谢楼主分享!我觉得中国高清论坛是注册对了!
回复 支持 2 反对 0

使用道具 举报

禁止发言

高清币
13
金钱
21
鲜花
0
在线时间
2 小时
最后登录
2019-4-13
发表于 2019-4-13 07:04:31 | 显示全部楼层
提示: 作者被禁止或删除 内容自动屏蔽
回复 支持 2 反对 0

使用道具 举报

跑龙套

高清币
9
金钱
17
鲜花
0
在线时间
4 小时
最后登录
2019-4-18
发表于 2019-4-15 21:54:08 | 显示全部楼层
很多资深老司机都在这:

http://22w.me/portal.php?x=625933
回复 支持 1 反对 0

使用道具 举报

跑龙套

高清币
8
金钱
10
鲜花
0
在线时间
0 小时
最后登录
2019-4-15
发表于 2019-4-15 14:45:47 | 显示全部楼层
很多资深老司机都在这:

http://8f3.club/portal.php?x=625933
回复 支持 1 反对 0

使用道具 举报

禁止发言

高清币
7
金钱
11
鲜花
0
在线时间
1 小时
最后登录
2019-4-15
发表于 2019-4-14 19:29:01 | 显示全部楼层
提示: 作者被禁止或删除 内容自动屏蔽
回复 支持 1 反对 0

使用道具 举报

知名艺人

高清币
0
金钱
415
鲜花
0
在线时间
124 小时
最后登录
2019-4-22
发表于 2019-4-12 18:40:29 | 显示全部楼层
回复 支持 反对

使用道具 举报

知名艺人

高清币
7
金钱
618
鲜花
0
在线时间
174 小时
最后登录
2019-4-22
发表于 2019-4-12 18:41:19 | 显示全部楼层

楼主太厉害了!楼主,电影应该很好看我觉得中国高清论坛真是个好地方!
回复 支持 反对

使用道具 举报

超级明星

高清币
110
金钱
8629
鲜花
0
在线时间
2885 小时
最后登录
2019-4-22
发表于 2019-4-12 18:43:47 | 显示全部楼层

这东西我收了!谢谢楼主!中国高清论坛真好!
回复 支持 反对

使用道具 举报

天王巨星

高清币
8
金钱
2162
鲜花
0
在线时间
236 小时
最后登录
2019-4-22
发表于 2019-4-12 18:46:56 | 显示全部楼层

楼主太厉害了!楼主,电影应该很好看我觉得中国高清论坛真是个好地方!
回复 支持 反对

使用道具 举报

金鸡奖主角

高清币
141
金钱
4087
鲜花
0
在线时间
1553 小时
最后登录
2019-4-22
发表于 2019-4-12 18:47:41 | 显示全部楼层

楼主太厉害了!楼主,电影应该很好看我觉得中国高清论坛真是个好地方!
回复 支持 反对

使用道具 举报

人气偶像

高清币
50
金钱
1347
鲜花
0
在线时间
223 小时
最后登录
2019-4-22
发表于 2019-4-12 18:48:32 | 显示全部楼层

其实我一直觉得楼主的品味不错!呵呵!中国高清论坛太棒了!
回复 支持 反对

使用道具 举报

人气偶像

高清币
0
金钱
1662
鲜花
0
在线时间
444 小时
最后登录
2019-4-23
发表于 2019-4-12 18:50:37 | 显示全部楼层
电影应该很好看我觉得中国高清论坛真是个好地方!
回复 支持 反对

使用道具 举报

人气偶像

高清币
29
金钱
2003
鲜花
0
在线时间
598 小时
最后登录
2019-4-22
发表于 2019-4-12 18:50:57 | 显示全部楼层
楼主发贴辛苦了,谢谢楼主分享!我觉得中国高清论坛是注册对了!
回复 支持 反对

使用道具 举报

懒得打字嘛,点击右侧快捷回复 【右侧内容,后台自定义】
您需要登录后才可以回帖 登录 | 立即注册

本版积分规则

QQ|手机版|小黑屋|中国高清论坛 ( 黔ICP备16007815号-1 )

GMT+8, 2019-4-23 06:18 , Processed in 0.057931 second(s), 30 queries .

Powered by Discuz! X3.4

© 2001-2017 Comsenz Inc.

快速回复 返回顶部 返回列表