请选择 进入手机版 | 继续访问电脑版

中国高清论坛

 找回密码
 立即注册
搜索
查看: 6727|回复: 1299

[动作片] 贴身女保镖/贴身风暴(港) Close.2019.x264.BDRip.1080p.OlLanDGroup 7.31 GiB

  [复制链接]

超级版主

高清币
16335
金钱
37997
鲜花
0
在线时间
11803 小时
最后登录
2019-7-17
发表于 2019-4-12 23:21:16 | 显示全部楼层 |阅读模式



◎译  名 贴身女保镖/贴身风暴(港)
◎片  名 Close
◎年  代 2018
◎国  家 美国
◎类  别 动作/惊悚
◎语  言 英语
◎IMDb评分 5.6/10 from 4,204 users
◎IMDB链接 https://www.imdb.com/title/tt5316540/
◎片  长 94 min
◎导  演 维姬·朱森 Vicky Jewson
◎主  演 劳米·拉佩斯 Noomi Rapace
       奥利维亚·杰森 Olivia Jewson
       阿卜杜拉提夫·查乌奇 Abdellatif Chaouqi
       苏菲·奈丽丝 Sophie Nélisse
      


◎简  介

  影片讲述拉佩斯饰演的女保镖兼反恐专家,被派去保护一位年轻的女继承人。而这位继承人和女保镖却互不喜欢...

  1. Общее
  2. Уникальный идентификатор : 175242757024098143801866180277898214557 (0x83D686FF0802E552B3BCCDC65CD67C9D)
  3. Полное имя : F:OlLanDGroupClose.2019.x264.BDRip.(1080p).OlLanDGroup.mkv
  4. Формат : Matroska
  5. Версия формата : Version 4 / Version 2
  6. Размер файла : 7,31 Гбайт
  7. Продолжительность : 1 ч. 34 м.
  8. Общий поток : 11,1 Мбит/сек
  9. Название фильма : Близко.2019.Rip by: ollan
  10. Дата кодирования : UTC 2019-04-12 13:21:45
  11. Программа кодирования : mkvmerge v29.0.0 ('Like It Or Not') 64-bit
  12. Библиотека кодирования : libebml v1.3.6 + libmatroska v1.4.9
  13. Обложка : Yes
  14. Attachments : Cover - Close.png

  15. Видео
  16. Идентификатор : 1
  17. Формат : AVC
  18. Формат/Информация : Advanced Video Codec
  19. Профиль формата : High@L4.1
  20. Параметр CABAC формата : Да
  21. Параметр ReFrames формата : 5 кадров
  22. Идентификатор кодека : V_MPEG4/ISO/AVC
  23. Продолжительность : 1 ч. 34 м.
  24. Битрейт : 9371 Кбит/сек
  25. Ширина : 1920 пикселей
  26. Высота : 804 пикселя
  27. Соотношение сторон : 2,40:1
  28. Режим частоты кадров : Постоянный
  29. Частота кадров : 24,000 кадра/сек
  30. Цветовое пространство : YUV
  31. Субдискретизация насыщенности : 4:2:0
  32. Битовая глубина : 8 бит
  33. Тип развёртки : Прогрессивная
  34. Бит/(Пиксели*Кадры) : 0.253
  35. Размер потока : 6,18 Гбайт (85%)
  36. Библиотека кодирования : x264 core 146 r2538 121396c
  37. Настройки программы : cabac=1 / ref=5 / deblock=1:-2:-3 / analyse=0x3:0x133 / me=umh / subme=11 / psy=1 / psy_rd=0.90:0.15 / mixed_ref=1 / me_range=64 / chroma_me=1 / trellis=2 / 8x8dct=1 / cqm=0 / deadzone=21,11 / fast_pskip=0 / chroma_qp_offset=-3 / threads=12 / lookahead_threads=3 / sliced_threads=0 / nr=0 / decimate=0 / interlaced=0 / bluray_compat=0 / constrained_intra=0 / bframes=10 / b_pyramid=2 / b_adapt=2 / b_bias=0 / direct=3 / weightb=1 / open_gop=0 / weightp=2 / keyint=240 / keyint_min=23 / scenecut=40 / intra_refresh=0 / rc_lookahead=40 / rc=2pass / mbtree=0 / bitrate=9371 / ratetol=1.0 / qcomp=0.60 / qpmin=0 / qpmax=69 / qpstep=4 / cplxblur=20.0 / qblur=0.5 / vbv_maxrate=50000 / vbv_bufsize=62500 / nal_hrd=none / filler=0 / ip_ratio=1.40 / pb_ratio=1.30 / aq=1:1.00
  38. Язык : English
  39. Default : Нет
  40. Forced : Нет

  41. Аудио #1
  42. Идентификатор : 2
  43. Формат : AC-3
  44. Формат/Информация : Audio Coding 3
  45. Расширение режима : CM (complete main)
  46. Параметр Endianness формата : Big
  47. Идентификатор кодека : A_AC3
  48. Продолжительность : 1 ч. 34 м.
  49. Вид битрейта : Постоянный
  50. Битрейт : 192 Кбит/сек
  51. Каналы : 2 канала
  52. Расположение каналов : Front: L R
  53. Частота : 48,0 КГц
  54. Частота кадров : 31,250 кадров/сек (1536 spf)
  55. Битовая глубина : 16 бит
  56. Метод сжатия : С потерями
  57. Размер потока : 130 Мбайт (2%)
  58. Заголовок : MVO [HDRezka Studio]
  59. Язык : Russian
  60. Default : Да
  61. Forced : Нет

  62. Аудио #2
  63. Идентификатор : 3
  64. Формат : DTS
  65. Формат/Информация : Digital Theater Systems
  66. Режим : 16
  67. Параметр Endianness формата : Big
  68. Идентификатор кодека : A_DTS
  69. Продолжительность : 1 ч. 34 м.
  70. Вид битрейта : Постоянный
  71. Битрейт : 1509 Кбит/сек
  72. Каналы : 6 каналов
  73. Расположение каналов : Front: L C R, Side: L R, LFE
  74. Частота : 48,0 КГц
  75. Частота кадров : 93,750 кадра/сек (512 spf)
  76. Битовая глубина : 16 бит
  77. Метод сжатия : С потерями
  78. Размер потока : 1020 Мбайт (14%)
  79. Заголовок : [Original]
  80. Язык : English
  81. Default : Нет
  82. Forced : Нет

  83. Текст
  84. Идентификатор : 4
  85. Формат : UTF-8
  86. Идентификатор кодека : S_TEXT/UTF8
  87. Идентификатор кодека/Информация : UTF-8 Plain Text
  88. Продолжительность : 1 ч. 27 м.
  89. Битрейт : 31 бит/сек
  90. Count of elements : 688
  91. Размер потока : 20,3 Кбайт (0%)
  92. Заголовок : Full
  93. Язык : English
  94. Default : Нет
  95. Forced : Нет

  96. Меню
  97. 00:00:00.000 : en:Chapter 01
  98. 00:07:33.541 : en:Chapter 02
  99. 00:13:05.458 : en:Chapter 03
  100. 00:23:29.208 : en:Chapter 04
  101. 00:34:15.333 : en:Chapter 05
  102. 00:40:17.041 : en:Chapter 06
  103. 00:51:18.208 : en:Chapter 07
  104. 00:57:52.541 : en:Chapter 08
  105. 01:04:21.375 : en:Chapter 09
  106. 01:13:08.000 : en:Chapter 10
  107. 01:18:06.750 : en:Chapter 11
  108. 01:26:20.083 : en:Chapter 12
复制代码



游客,如果您要查看本帖隐藏内容请回复,您还可以免扣高清币免回复下载:https://www.85lou.com/plugin.php?id=threed_vip
回复

使用道具 举报

好莱坞明星

高清币
3
金钱
6799
鲜花
0
在线时间
2220 小时
最后登录
2019-7-17
发表于 2019-4-12 23:23:24 | 显示全部楼层
非常感谢楼主的分享!
回复 支持 2 反对 0

使用道具 举报

知名艺人

高清币
11
金钱
595
鲜花
0
在线时间
123 小时
最后登录
2019-7-16
发表于 2019-4-12 23:22:23 | 显示全部楼层
感谢楼主的无私分享
回复 支持 2 反对 0

使用道具 举报

禁止发言

高清币
13
金钱
21
鲜花
0
在线时间
2 小时
最后登录
2019-4-13
发表于 2019-4-13 07:03:42 | 显示全部楼层
提示: 作者被禁止或删除 内容自动屏蔽
回复 支持 2 反对 0

使用道具 举报

禁止发言

高清币
7
金钱
11
鲜花
0
在线时间
1 小时
最后登录
2019-4-15
发表于 2019-4-14 19:29:23 | 显示全部楼层
提示: 作者被禁止或删除 内容自动屏蔽
回复 支持 1 反对 0

使用道具 举报

永恒神话

高清币
4846
金钱
21983
鲜花
0
在线时间
2927 小时
最后登录
2019-7-17
发表于 2019-4-12 23:24:01 | 显示全部楼层
谢楼主分享,有你更精彩
回复 支持 反对

使用道具 举报

影坛巨星

高清币
2882
金钱
8152
鲜花
0
在线时间
2038 小时
最后登录
2019-7-17
发表于 2019-4-12 23:28:45 | 显示全部楼层
楼主发贴辛苦了,谢谢楼主分享!我觉得中国高清论坛是注册对了!
回复 支持 反对

使用道具 举报

人气偶像

高清币
1
金钱
990
鲜花
0
在线时间
368 小时
最后登录
2019-5-31
发表于 2019-4-12 23:29:00 | 显示全部楼层
楼主发贴辛苦了,谢谢楼主分享!我觉得中国高清论坛是注册对了!
回复 支持 反对

使用道具 举报

天王巨星

高清币
553
金钱
1834
鲜花
0
在线时间
154 小时
最后登录
2019-7-16
发表于 2019-4-12 23:33:41 | 显示全部楼层

这东西我收了!谢谢楼主!中国高清论坛真好!
回复 支持 反对

使用道具 举报

好莱坞明星

高清币
87
金钱
6826
鲜花
0
在线时间
1394 小时
最后登录
2019-7-17
发表于 2019-4-12 23:34:09 | 显示全部楼层
感谢发布好片
回复 支持 反对

使用道具 举报

人气偶像

高清币
39
金钱
1005
鲜花
0
在线时间
106 小时
最后登录
2019-7-12
发表于 2019-4-12 23:34:52 | 显示全部楼层
这是俄文电影?
回复 支持 反对

使用道具 举报

懒得打字嘛,点击右侧快捷回复 【右侧内容,后台自定义】
您需要登录后才可以回帖 登录 | 立即注册

本版积分规则

QQ|手机版|小黑屋|中国高清论坛 ( 黔ICP备16007815号-1 )

GMT+8, 2019-7-17 14:44 , Processed in 0.060259 second(s), 26 queries .

Powered by Discuz! X3.4

© 2001-2017 Comsenz Inc.

快速回复 返回顶部 返回列表