请选择 进入手机版 | 继续访问电脑版

中国高清论坛

 找回密码
 立即注册
搜索
查看: 17318|回复: 4109

[动作片] 邪不压正 [普通话] Hi.M.2018.CHINESE.1080p.BluRay.x264.TrueHD.5.1-CHD 13.40 GiB

  [复制链接]

超级版主

高清币
16118
金钱
37517
鲜花
0
在线时间
11697 小时
最后登录
2019-6-26
发表于 2019-4-14 00:20:53 | 显示全部楼层 |阅读模式



◎译  名 邪不压正/侠隐
◎片  名 Hidden Man
◎年  代 2018
◎国  家 中国
◎类  别 动作/犯罪/剧情
◎语  言 普通话
◎IMDb评分 6.5/10 from 493 users
◎IMDb链接 https://www.imdb.com/title/tt8434380/
◎片  长 2 h 14 min
◎导  演 姜文 Wen Jiang
◎主  演 彭于晏 Eddie Peng
                  廖凡 Fan Liao
                  姜文 Wen Jiang
                  周韵 Yun Zhou
                  许晴 Qing Xu
                  泽田谦也 Kenya Sawada
                  安地 Andy Friend
                  史航 Hang Shi
                  李梦 Meng Li
                  丁嘉丽 Jiali Ding
                  陈曦


◎简  介  


  北洋年间,北京以北。习武少年李天然目睹师兄朱潜龙勾结日本特务根本一郎,杀害师父全家。李天然侥幸从枪下逃脱,被美国医生亨德勒救下。李天然伤愈后,赴美学医多年,并同时接受特工训练。1937年初,李天然突然受命回国。“七七事变”前夜,北平,这座国际间谍之城,华洋混杂,山头林立。每时每刻充满诱惑与杀机。一心复仇的李天然,并不知道自己被卷入了一场阴谋,亦搅乱了一盘棋局。彼时彼刻,如同李小龙闯进了谍都卡萨布兰卡。前朝武人蓝青峰,神秘莫测,与朱潜龙、根本一郎关系紧密,更与亨德勒情同手足。是敌是友?面目不清。随着中日危机不断升级,各方博弈愈演愈烈。多次为谎言蛊惑、错失时机的李天然,终于下定决心,在红颜帮助下开启复仇行动。且看负有国恨家仇且智勇双全之李天然,如何荡涤这摊污泥浊水!

花絮

.影片根据张艾嘉的叔叔、旅美作家张北海的武侠小说《侠隐》改编。

.《邪不压正》是姜文的民国三部曲的最后一部,前两部是《让子弹飞》《一步之遥》。

.姜文宣称,《邪不压正》就像李小龙闯入《卡萨布兰卡》,复仇之战一触即发。

.《邪不压正》在陕西西安、云南等地拍摄。

.姜文在云南石林的杏林大观园文创园区找到了一块地,生生搭出了4万平方米的屋顶,打造出了一个屋顶世界。

获奖记录

台湾电影金马奖(2018;第55届)
提名
·金马奖-最佳导演奖姜文 Wen Jiang  
·金马奖-最佳女配角奖许晴 Summer Xu  
·金马奖-最佳视觉效果奖
·金马奖-最佳美术设计奖
·金马奖-最佳化妆和服装设计奖
·金马奖-最佳动作设计
  1. Video
  2. ID : 1
  3. Format : AVC
  4. Format/Info : Advanced Video Codec
  5. Format profile : [email]High@L4.1[/email]
  6. Format settings : CABAC / 4 Ref Frames
  7. Format settings, CABAC : Yes
  8. Format settings, ReFrames : 4 frames
  9. Codec ID : V_MPEG4/ISO/AVC
  10. Duration : 2 h 14 min
  11. Bit rate : 11.5 Mb/s
  12. Width : 1 920 pixels
  13. Height : 806 pixels
  14. Display aspect ratio : 2.40:1
  15. Frame rate mode : Constant
  16. Frame rate : 24.000 FPS
  17. Color space : YUV
  18. Chroma subsampling : 4:2:0
  19. Bit depth : 8 bits
  20. Scan type : Progressive
  21. Bits/(Pixel*Frame) : 0.311
  22. Stream size : 10.8 GiB (81%)
  23. Writing library : x264 core 157 r2867+150 7e91e0e t_mod_Custom_2 [8-bit@all X86_64]
  24. Encoding settings : cabac=1 / ref=4 / deblock=1:-3:-3 / analyse=0x3:0x133 / me=umh / subme=10 / psy=1 / fade_compensate=0.00 / psy_rd=0.95:0.10 / mixed_ref=1 / me_range=48 / chroma_me=1 / trellis=2 / 8x8dct=1 / cqm=0 / deadzone=21,11 / fast_pskip=0 / chroma_qp_offset=-4 / threads=18 / lookahead_threads=3 / sliced_threads=0 / nr=0 / decimate=1 / interlaced=0 / bluray_compat=0 / constrained_intra=0 / fgo=0 / bframes=8 / b_pyramid=2 / b_adapt=2 / b_bias=0 / direct=3 / weightb=1 / open_gop=0 / weightp=2 / keyint=250 / keyint_min=24 / scenecut=40 / intra_refresh=0 / rc_lookahead=60 / rc=crf / mbtree=0 / crf=20.0000 / qcomp=0.70 / qpmin=0:0:0 / qpmax=69:69:69 / qpstep=4 / vbv_maxrate=35000 / vbv_bufsize=35000 / crf_max=0.0 / nal_hrd=none / filler=0 / ip_ratio=1.40 / pb_ratio=1.30 / aq=3:1.00 / aq-sensitivity=10.00 / aq-factor=1.00:1.00:1.00 / aq2=0 / aq3=2:[0.50:0.50]:[0.50:0.50]:[0.50:0.50]:[0.50:0.50] / aq3-sensitivity=10.00 / aq3-factor=[1.00:1.00]:[1.00:1.00]:[1.00:1.00] / aq3-boundary=192:64:24
  25. Language : Chinese
  26. Default : Yes
  27. Forced : No

  28. Audio
  29. ID : 2
  30. Format : MLP FBA
  31. Format/Info : Meridian Lossless Packing FBA
  32. Commercial name : Dolby TrueHD
  33. Codec ID : A_TRUEHD
  34. Duration : 2 h 14 min
  35. Bit rate mode : Variable
  36. Bit rate : 2 596 kb/s
  37. Maximum bit rate : 4 518 kb/s
  38. Channel(s) : 6 channels
  39. Channel layout : L R C LFE Ls Rs
  40. Sampling rate : 96.0 kHz
  41. Frame rate : 1 200.000 FPS (80 SPF)
  42. Compression mode : Lossless
  43. Stream size : 2.44 GiB (18%)
  44. Language : Chinese
  45. Default : Yes
  46. Forced : No

  47. Text #1
  48. ID : 3
  49. Format : UTF-8
  50. Codec ID : S_TEXT/UTF8
  51. Codec ID/Info : UTF-8 Plain Text
  52. Duration : 2 h 7 min
  53. Bit rate : 66 b/s
  54. Count of elements : 2403
  55. Stream size : 62.7 KiB (0%)
  56. Title : English-SRT
  57. Language : English
  58. Default : Yes
  59. Forced : Yes

  60. Text #2
  61. ID : 4
  62. Format : PGS
  63. Muxing mode : zlib
  64. Codec ID : S_HDMV/PGS
  65. Codec ID/Info : Picture based subtitle format used on BDs/HD-DVDs
  66. Duration : 2 h 7 min
  67. Bit rate : 43.9 kb/s
  68. Count of elements : 3883
  69. Stream size : 40.2 MiB (0%)
  70. Title : English-PGS
  71. Language : English
  72. Default : No
  73. Forced : No

  74. Text #3
  75. ID : 5
  76. Format : PGS
  77. Muxing mode : zlib
  78. Codec ID : S_HDMV/PGS
  79. Codec ID/Info : Picture based subtitle format used on BDs/HD-DVDs
  80. Duration : 2 h 7 min
  81. Bit rate : 39.0 kb/s
  82. Count of elements : 3972
  83. Stream size : 35.7 MiB (0%)
  84. Title : Chinese-PGS
  85. Language : Chinese
  86. Default : No
  87. Forced : No

  88. Text #4
  89. ID : 6
  90. Format : PGS
  91. Muxing mode : zlib
  92. Codec ID : S_HDMV/PGS
  93. Codec ID/Info : Picture based subtitle format used on BDs/HD-DVDs
  94. Duration : 2 h 7 min
  95. Bit rate : 42.0 kb/s
  96. Count of elements : 3972
  97. Stream size : 38.4 MiB (0%)
  98. Title : Chinese-PGS
  99. Language : Chinese
  100. Default : No
  101. Forced : No

  102. Menu
  103. 00:00:00.000 : :绗?01 绔?
  104. 00:06:41.208 : :绗?02 绔?
  105. 00:13:16.125 : :绗?03 绔?
  106. 00:23:55.875 : :绗?04 绔?
  107. 00:33:17.750 : :绗?05 绔?
  108. 00:44:15.458 : :绗?06 绔?
  109. 00:50:27.458 : :绗?07 绔?
  110. 01:05:43.250 : :绗?08 绔?
  111. 01:10:11.583 : :绗?09 绔?
  112. 01:15:26.125 : :绗?10 绔?
  113. 01:19:48.625 : :绗?11 绔?
  114. 01:26:30.542 : :绗?12 绔?
  115. 01:30:47.792 : :绗?13 绔?
  116. 01:36:39.000 : :绗?14 绔?
  117. 01:40:20.250 : :绗?15 绔?
  118. 01:49:56.917 : :绗?16 绔?
  119. 01:54:18.833 : :绗?17 绔?
  120. 01:59:33.083 : :绗?18 绔?
  121. 02:04:46.875 : :绗?19 绔?
  122. 02:10:20.417 : :绗?20 绔?
复制代码






游客,如果您要查看本帖隐藏内容请回复,您还可以免扣高清币免回复下载:https://www.85lou.com/plugin.php?id=wyfaka_url:url


回复

使用道具 举报

人气偶像

高清币
210
金钱
593
鲜花
0
在线时间
62 小时
最后登录
2019-6-24
发表于 2019-4-14 00:52:14 | 显示全部楼层
楼主真好,电影一定很好看,我想我再也离不开中国高清论坛了!
回复 支持 1 反对 1

使用道具 举报

金鸡奖主角

高清币
0
金钱
4672
鲜花
0
在线时间
1160 小时
最后登录
2019-6-26
发表于 2019-4-14 00:46:58 | 显示全部楼层

这东西我收了!谢谢楼主!中国高清论坛真好!
回复 支持 0 反对 1

使用道具 举报

禁止发言

高清币
9
金钱
17
鲜花
0
在线时间
4 小时
最后登录
2019-4-18
发表于 2019-4-15 21:53:04 | 显示全部楼层
提示: 作者被禁止或删除 内容自动屏蔽
回复 支持 1 反对 0

使用道具 举报

超级明星

高清币
52
金钱
10987
鲜花
0
在线时间
2229 小时
最后登录
2019-6-26
发表于 2019-4-14 00:47:04 | 显示全部楼层

这个帖子不回对不起自己!我想我是一天也不能离开中国高清论坛
回复 支持 1 反对 0

使用道具 举报

金鸡奖主角

高清币
541
金钱
4686
鲜花
0
在线时间
438 小时
最后登录
2019-6-26
发表于 2019-4-14 00:23:14 | 显示全部楼层

这个帖子不回对不起自己!我想我是一天也不能离开中国高清论坛
回复 支持 反对

使用道具 举报

知名艺人

高清币
0
金钱
603
鲜花
0
在线时间
63 小时
最后登录
2019-6-23
发表于 2019-4-14 00:32:25 | 显示全部楼层
66666666666
回复 支持 反对

使用道具 举报

影坛巨星

高清币
3708
金钱
5188
鲜花
0
在线时间
1273 小时
最后登录
2019-6-26
发表于 2019-4-14 00:37:39 | 显示全部楼层

楼主太厉害了!楼主,电影应该很好看我觉得中国高清论坛真是个好地方!
回复 支持 反对

使用道具 举报

金鸡奖主角

高清币
401
金钱
3983
鲜花
0
在线时间
1344 小时
最后登录
2019-6-26
发表于 2019-4-14 00:38:38 | 显示全部楼层
这东西我收了!谢谢楼主!中国高清论坛真好!
回复 支持 反对

使用道具 举报

金鸡奖主角

高清币
401
金钱
3983
鲜花
0
在线时间
1344 小时
最后登录
2019-6-26
发表于 2019-4-14 00:39:05 | 显示全部楼层
这东西我收了!谢谢楼主!中国高清论坛真好!
回复 支持 反对

使用道具 举报

影坛巨星

高清币
1823
金钱
10570
鲜花
0
在线时间
1601 小时
最后登录
2019-6-26
发表于 2019-4-14 00:41:11 | 显示全部楼层
楼主发贴辛苦了,谢谢楼主分享!我觉得中国高清论坛是注册对了!
回复 支持 反对

使用道具 举报

人气偶像

高清币
313
金钱
671
鲜花
0
在线时间
124 小时
最后登录
2019-6-26
发表于 2019-4-14 00:43:37 | 显示全部楼层

楼主太厉害了!楼主,电影应该很好看我觉得中国高清论坛真是个好地方!
回复 支持 反对

使用道具 举报

好莱坞明星

高清币
2226
金钱
4383
鲜花
0
在线时间
972 小时
最后登录
2019-6-20
发表于 2019-4-14 00:45:48 | 显示全部楼层

楼主太厉害了!楼主,电影应该很好看我觉得中国高清论坛真是个好地方!
回复 支持 反对

使用道具 举报

懒得打字嘛,点击右侧快捷回复 【右侧内容,后台自定义】
您需要登录后才可以回帖 登录 | 立即注册

本版积分规则

QQ|手机版|小黑屋|中国高清论坛 ( 黔ICP备16007815号-1 )

GMT+8, 2019-6-26 20:08 , Processed in 0.052649 second(s), 30 queries .

Powered by Discuz! X3.4

© 2001-2017 Comsenz Inc.

快速回复 返回顶部 返回列表