请选择 进入手机版 | 继续访问电脑版

中国高清论坛

 找回密码
 立即注册
搜索
查看: 4783|回复: 1074

[动作片] 特工/北风(台) The.Spy.Gone.North.2018.KOREAN.1080p.BluRay.x264.DTS-SbR 17.37 GiB

  [复制链接]

超级版主

高清币
15565
金钱
36307
鲜花
-88
在线时间
11417 小时
最后登录
2019-4-23
发表于 2019-4-14 20:20:42 | 显示全部楼层 |阅读模式



◎译  名 特工/工作/北风(台)/北寒谍战(港)
◎片  名 The Spy Gone North / Gongjak/공작
◎年  代 2018
◎国  家 韩国
◎类  别 剧情/动作
◎语  言 韩语
◎IMDb评分 7.2/10 from 1,165 users
◎IMDb链接 https://www.imdb.com/title/tt8290698/
◎片  长 2 h 17 min
◎导  演 尹钟彬 Jong-bin Yoon
◎主  演 黄政民 Jeong-min Hwang
       李圣旻 Sung-min Lee
       赵震雄 Jin-woong Jo
       朱智勋 Ji-hun Ju
   
 


◎简  介

  1990年代中期,暗号「黑金星」的南韩「国家安全企划部」情报员,假扮成南韩商人跟北韩进行商业交易,藉此渗透北韩军事单位,打探核开发情报,他得在最危险的地方,赢得敌方的信任,没想到一心只想完成任务的他,却在不自觉中陷入南北韩权力高层间的恐怖阴谋。

  1. Video
  2. ID : 1
  3. Format : AVC
  4. Format/Info : Advanced Video Codec
  5. Format profile : High@L4.1
  6. Format settings : CABAC / 4 Ref Frames
  7. Format settings, CABAC : Yes
  8. Format settings, ReFrames : 4 frames
  9. Codec ID : V_MPEG4/ISO/AVC
  10. Duration : 2 h 17 min
  11. Bit rate : 16.6 Mb/s
  12. Width : 1 920 pixels
  13. Height : 804 pixels
  14. Display aspect ratio : 2.40:1
  15. Frame rate mode : Constant
  16. Frame rate : 23.976 (24000/1001) FPS
  17. Color space : YUV
  18. Chroma subsampling : 4:2:0
  19. Bit depth : 8 bits
  20. Scan type : Progressive
  21. Bits/(Pixel*Frame) : 0.448
  22. Stream size : 15.9 GiB (92%)
  23. Writing library : x264 core 152 r2851kMod ba24899
  24. Encoding settings : cabac=1 / ref=4 / deblock=1:-3:-3 / analyse=0x3:0x133 / me=umh / subme=11 / psy=1 / fade_compensate=0.00 / psy_rd=1.00:0.00 / mixed_ref=1 / me_range=32 / chroma_me=1 / trellis=2 / 8x8dct=1 / cqm=0 / deadzone=21,11 / fast_pskip=1 / chroma_qp_offset=-2 / threads=25 / lookahead_threads=6 / sliced_threads=0 / nr=0 / decimate=1 / interlaced=0 / bluray_compat=0 / constrained_intra=0 / bframes=10 / b_pyramid=2 / b_adapt=2 / b_bias=0 / direct=3 / weightb=1 / open_gop=0 / weightp=2 / keyint=250 / keyint_min=23 / scenecut=40 / intra_refresh=0 / rc=crf / mbtree=0 / crf=16.0000 / qcomp=0.65 / qpmin=0 / qpmax=69 / qpstep=4 / ip_ratio=1.25 / pb_ratio=1.20 / aq=1:0.60
  25. Language : Korean
  26. Default : Yes
  27. Forced : No

  28. Audio
  29. ID : 2
  30. Format : DTS
  31. Format/Info : Digital Theater Systems
  32. Codec ID : A_DTS
  33. Duration : 2 h 17 min
  34. Bit rate mode : Constant
  35. Bit rate : 1 509 kb/s
  36. Channel(s) : 6 channels
  37. Channel layout : C L R Ls Rs LFE
  38. Sampling rate : 48.0 kHz
  39. Frame rate : 93.750 FPS (512 SPF)
  40. Bit depth : 24 bits
  41. Compression mode : Lossy
  42. Stream size : 1.45 GiB (8%)
  43. Language : Korean
  44. Default : Yes
  45. Forced : No

  46. Text
  47. ID : 3
  48. Format : UTF-8
  49. Codec ID : S_TEXT/UTF8
  50. Codec ID/Info : UTF-8 Plain Text
  51. Duration : 2 h 12 min
  52. Bit rate : 57 b/s
  53. Count of elements : 1589
  54. Stream size : 56.4 KiB (0%)
  55. Language : English
  56. Default : Yes
  57. Forced : Yes

  58. Menu
  59. 00:00:00.000 : en:Chapter 01
  60. 00:12:17.195 : en:Chapter 02
  61. 00:18:07.837 : en:Chapter 03
  62. 00:23:38.709 : en:Chapter 04
  63. 00:32:54.973 : en:Chapter 05
  64. 00:43:41.786 : en:Chapter 06
  65. 00:52:22.473 : en:Chapter 07
  66. 00:56:36.852 : en:Chapter 08
  67. 01:05:47.026 : en:Chapter 09
  68. 01:14:43.562 : en:Chapter 10
  69. 01:25:20.741 : en:Chapter 11
  70. 01:34:44.971 : en:Chapter 12
  71. 01:43:59.942 : en:Chapter 13
  72. 01:55:05.357 : en:Chapter 14
  73. 02:07:21.884 : en:Chapter 15
  74. 02:13:32.004 : en:Chapter 16
复制代码






游客,如果您要查看本帖隐藏内容请回复

回复

使用道具 举报

永恒神话

高清币
7789
金钱
19001
鲜花
0
在线时间
3951 小时
最后登录
2019-4-22
发表于 2019-4-14 20:33:39 | 显示全部楼层
楼主发贴辛苦了,谢谢楼主分享!我觉得中国高清论坛是注册对了!
回复 支持 1 反对 1

使用道具 举报

金鸡奖主角

高清币
260
金钱
3661
鲜花
0
在线时间
622 小时
最后登录
2019-4-22
发表于 2019-4-15 00:23:11 | 显示全部楼层

楼主太厉害了!楼主,电影应该很好看我觉得中国高清论坛真是个好地方!
回复 支持 2 反对 0

使用道具 举报

跑龙套

高清币
5
金钱
9
鲜花
0
在线时间
2 小时
最后登录
2019-4-22
发表于 前天 02:37 | 显示全部楼层
很多资深老司机都在这:

http://22w.me/portal.php?x=625933
回复 支持 1 反对 0

使用道具 举报

禁止发言

高清币
7
金钱
9
鲜花
0
在线时间
1 小时
最后登录
2019-4-15
发表于 2019-4-15 00:20:43 | 显示全部楼层
提示: 作者被禁止或删除 内容自动屏蔽
回复 支持 1 反对 0

使用道具 举报

人气偶像

高清币
36
金钱
778
鲜花
0
在线时间
99 小时
最后登录
2019-4-15
发表于 2019-4-14 20:39:37 | 显示全部楼层

其实我一直觉得楼主的品味不错!呵呵!中国高清论坛太棒了!
回复 支持 1 反对 0

使用道具 举报

superstar

高清币
5307
金钱
9849
鲜花
0
在线时间
1314 小时
最后登录
2019-4-23
发表于 2019-4-14 20:39:54 | 显示全部楼层

既然你诚信诚意的推荐了,那我就勉为其难的看看吧!中国高清论坛不走平凡路。
回复 支持 1 反对 0

使用道具 举报

金鸡奖主角

高清币
1083
金钱
4741
鲜花
0
在线时间
1641 小时
最后登录
2019-4-22
发表于 2019-4-14 20:25:26 | 显示全部楼层
好片,必须看一看。楼主辛苦了,谢谢分享!!!
回复 支持 反对

使用道具 举报

人气偶像

高清币
48
金钱
1146
鲜花
0
在线时间
251 小时
最后登录
2019-4-21
发表于 2019-4-14 20:26:35 | 显示全部楼层

楼主太厉害了!楼主,电影应该很好看我觉得中国高清论坛真是个好地方!
回复 支持 反对

使用道具 举报

知名艺人

高清币
4
金钱
206
鲜花
0
在线时间
27 小时
最后登录
2019-4-22
发表于 2019-4-14 20:26:40 | 显示全部楼层

我看不错噢 谢谢楼主!中国高清论坛越来越好!
回复 支持 反对

使用道具 举报

好莱坞明星

高清币
1167
金钱
5341
鲜花
0
在线时间
982 小时
最后登录
2019-4-14
发表于 2019-4-14 20:27:10 | 显示全部楼层
楼主发贴辛苦了,谢谢楼主分享!我觉得中国高清论坛是注册对了!
回复 支持 反对

使用道具 举报

永恒神话

高清币
16879
金钱
29309
鲜花
0
在线时间
2156 小时
最后登录
2019-4-23
发表于 2019-4-14 20:27:26 | 显示全部楼层
谢谢发片,辛苦了
回复 支持 反对

使用道具 举报

永恒神话

高清币
4506
金钱
22283
鲜花
0
在线时间
1691 小时
最后登录
2019-4-22
发表于 2019-4-14 20:28:46 | 显示全部楼层

楼主太厉害了!楼主,电影应该很好看我觉得中国高清论坛真是个好地方!
回复 支持 反对

使用道具 举报

金鸡奖主角

高清币
555
金钱
3459
鲜花
0
在线时间
872 小时
最后登录
2019-4-23
发表于 2019-4-14 20:32:21 | 显示全部楼层

楼主太厉害了!楼主,电影应该很好看我觉得中国高清论坛真是个好地方!
回复 支持 反对

使用道具 举报

好莱坞明星

高清币
9
金钱
7094
鲜花
0
在线时间
1480 小时
最后登录
2019-4-22
发表于 2019-4-14 20:33:08 | 显示全部楼层

这东西我收了!谢谢楼主!中国高清论坛真好!
回复 支持 反对

使用道具 举报

懒得打字嘛,点击右侧快捷回复 【右侧内容,后台自定义】
您需要登录后才可以回帖 登录 | 立即注册

本版积分规则

QQ|手机版|小黑屋|中国高清论坛 ( 黔ICP备16007815号-1 )

GMT+8, 2019-4-23 05:54 , Processed in 0.053245 second(s), 30 queries .

Powered by Discuz! X3.4

© 2001-2017 Comsenz Inc.

快速回复 返回顶部 返回列表